Часовой пояс: UTC + 3 часа




Начать новую тему Ответить на тему  [ 1 сообщение ] 
Автор Сообщение
СообщениеДобавлено: 2020-12-03 11:03 
Не в сети
Администратор
Администратор
Аватара пользователя
Раздал: 1.44 ТБ
Скачал: 9.17 ГБ
Ратио: 160.627


Зарегистрирован: 2014-03-16 00:45
Сообщения: 3300
#777

Информация о фильме
Название: Анна и Король
Оригинальное название: Anna and the King
Год выпуска: 1999
Выпущено: США, 20th Century Fox
Продолжительность: 02:28:08
Перевод: Дублированный, профессиональный многоголосый, профессиональный двухголосый, авторский
Жанр: Драма, мелодрама, биография, экранизация

Режиссер: Энди Теннант

В ролях:
Джоди Фостер, Юнь-Фат Чоу, Бай Лин, Том Фелтон, Сайед Алви, Рэндолл Дак Ким, Кэй Сиу Лим, Мелисса Кэмпбелл, Кейт Чин, Мано Маниам, Шантини Венугопаль, Деанна Юсофф, Джеффри Палмер, Энн Фёрбэнк, Билл Стюарт, Шон Гази, К.К. Могги, Дхарма Гарун Аль-Рашид, Харит Искандер, Юсуф Б. Мод Кассим, Эфдлин Шауки, Сви Лин Нео, Рамли Хассан, Роберт Хэндс, Ю Бинг Лим, Кеннет Цан, Ки Тхуан Чи, Тео Ках Янг, Аими Азиз, Элли Сурияти Омар, Тина Ли Сье Тинг, Руби Вонг, Заридах Абдул Малик, Фариза Азлина, Ахмед Мазлан, Мод Разиб Салиман, Пак Линг, Махмуд Али Басах, Зульхайла Сиригар, Жан-Люк Рассье

О фильме:
Римейк фильма "Анна и король Сиама" режиссера Джона Кромуэлла (1946) по книге английской писательницы Маргарет Лэндон. 1862 год. Школьная учительница, британка Анна Леоноуэнс (Джоди Фостер), приезжает в экзотическую страну Сиам по приглашению короля Монгкат (Чоу Юнь-Фат), большого почитателя западной культуры. Он нанял ее, чтобы дать прекрасное образование своим многочисленным женам и детям. Умной и благородной европейской женщине поначалу нелегко приходится в стране с чуждыми обычаями и варварскими традициями. Но постепенно, несмотря на разницу в социальном положении и мировоззрении, между Анной и великим властителем зарождаются романтические отношения…



Сэмпл

Файл
Качество: WEB-DLRip (720p)
Видео: MPEG-4 AVC, 6124 Кбит/с, 1280x544
Аудио #1: Русский (AC3, 6 ch, 320 Кбит/с) - Профессиональный двухголосый
Аудио #2: Русский (AC3, 2 ch, 160 Кбит/с) - Дублированный (по умолчанию)
Аудио #3: Русский (AC3, 2 ch, 160 Кбит/с) - Профессиональный многоголосый (НТВ+)
Аудио #4: Русский (AC3, 2 ch, 160 Кбит/с) - Профессиональный многоголосый
Аудио #5: Русский (AC3, 2 ch, 128 Кбит/с) - Авторский (Ю.Живов)
Аудио #6: Английский (AC3, 6 ch, 448 Кбит/с) - Оригинал
Субтитры: Русские, английские


Формат : Matroska
Версия формата : Version 2
Размер файла : 7,76 Гбайт
Продолжительность : 2 ч. 28 м.
Общий поток : 7 501 Кбит/сек
Название фильма : ~V ad~
Дата кодирования : UTC 2020-11-20 07:50:33
Программа кодирования : mkvmerge v6.5.0 ('Isn't she lovely') built on Oct 20 2013 12:50:05
Библиотека кодирования : libebml v1.3.0 + libmatroska v1.4.1
Обложка : Yes
Attachments : cover.jpg

Видео
Идентификатор : 1
Формат : AVC
Формат/Информация : Advanced Video Codec
Профиль формата : High@L4.1
Настройки формата : CABAC / 11 Ref Frames
Параметр CABAC формата : Да
Параметр RefFrames формата : 11 кадров
Идентификатор кодека : V_MPEG4/ISO/AVC
Продолжительность : 2 ч. 28 м.
Битрейт : 6 124 Кбит/сек
Ширина : 1 280 пикселей
Высота : 544 пикселя
Соотношение сторон : 2,35:1
Режим частоты кадров : Постоянный
Частота кадров : 23,976 (24000/1001) кадра/сек
Цветовое пространство : YUV
Субдискретизация насыщенности : 4:2:0
Битовая глубина : 8 бит
Тип развёртки : Прогрессивная
Бит/(Пиксели*Кадры) : 0.367
Размер потока : 6,18 Гбайт (80%)
Заголовок : ~V~
Библиотека кодирования : x264 core 161 r3018 db0d417
Настройки программы : cabac=1 / ref=11 / deblock=1:-3:-3 / analyse=0x3:0x133 / me=umh / subme=11 / psy=1 / psy_rd=1.00:0.00 / mixed_ref=1 / me_range=32 / chroma_me=1 / trellis=2 / 8x8dct=1 / cqm=0 / deadzone=21,11 / fast_pskip=0 / chroma_qp_offset=-2 / threads=12 / lookahead_threads=1 / sliced_threads=0 / nr=0 / decimate=0 / interlaced=0 / bluray_compat=0 / constrained_intra=0 / bframes=10 / b_pyramid=2 / b_adapt=2 / b_bias=0 / direct=3 / weightb=1 / open_gop=0 / weightp=2 / keyint=240 / keyint_min=23 / scenecut=40 / intra_refresh=0 / rc=2pass / mbtree=0 / bitrate=6124 / ratetol=1.0 / qcomp=0.65 / qpmin=0 / qpmax=69 / qpstep=4 / cplxblur=20.0 / qblur=0.5 / ip_ratio=1.20 / pb_ratio=1.20 / aq=3:0.90
Язык : Английский
Default : Да
Forced : Нет
Duration_Source : General_Duration

Аудио #1
Идентификатор : 2
Формат : AC-3
Формат/Информация : Audio Coding 3
Коммерческое название : Dolby Digital
Идентификатор кодека : A_AC3
Продолжительность : 2 ч. 28 м.
Вид битрейта : Постоянный
Битрейт : 320 Кбит/сек
Каналы : 6 каналов
Channel layout : L R C LFE Ls Rs
Частота : 48,0 КГц
Частота кадров : 31,250 кадров/сек (1536 SPF)
Метод сжатия : С потерями
Размер потока : 339 Мбайт (4%)
Заголовок : DVO
Язык : Русский
Service kind : Complete Main
Default : Нет
Forced : Нет
Duration_Source : General_Duration

Аудио #2
Идентификатор : 3
Формат : AC-3
Формат/Информация : Audio Coding 3
Коммерческое название : Dolby Digital
Идентификатор кодека : A_AC3
Продолжительность : 2 ч. 28 м.
Вид битрейта : Постоянный
Битрейт : 160 Кбит/сек
Каналы : 2 канала
Channel layout : L R
Частота : 48,0 КГц
Частота кадров : 31,250 кадров/сек (1536 SPF)
Метод сжатия : С потерями
Размер потока : 170 Мбайт (2%)
Заголовок : DUB [ФильмЛайн Интернэшнл]
Язык : Русский
Service kind : Complete Main
Default : Да
Forced : Да
Duration_Source : General_Duration

Аудио #3
Идентификатор : 4
Формат : AC-3
Формат/Информация : Audio Coding 3
Коммерческое название : Dolby Digital
Идентификатор кодека : A_AC3
Продолжительность : 2 ч. 28 м.
Вид битрейта : Постоянный
Битрейт : 160 Кбит/сек
Каналы : 2 канала
Channel layout : L R
Частота : 48,0 КГц
Частота кадров : 31,250 кадров/сек (1536 SPF)
Метод сжатия : С потерями
Размер потока : 170 Мбайт (2%)
Заголовок : MVO [НТВ+]
Язык : Русский
Service kind : Complete Main
Default : Нет
Forced : Нет
Duration_Source : General_Duration

Аудио #4
Идентификатор : 5
Формат : AC-3
Формат/Информация : Audio Coding 3
Коммерческое название : Dolby Digital
Идентификатор кодека : A_AC3
Продолжительность : 2 ч. 28 м.
Вид битрейта : Постоянный
Битрейт : 160 Кбит/сек
Каналы : 2 канала
Channel layout : L R
Частота : 48,0 КГц
Частота кадров : 31,250 кадров/сек (1536 SPF)
Метод сжатия : С потерями
Размер потока : 170 Мбайт (2%)
Заголовок : MVO
Язык : Русский
Service kind : Complete Main
Default : Нет
Forced : Нет
Duration_Source : General_Duration

Аудио #5
Идентификатор : 6
Формат : AC-3
Формат/Информация : Audio Coding 3
Коммерческое название : Dolby Digital
Идентификатор кодека : A_AC3
Продолжительность : 2 ч. 28 м.
Вид битрейта : Постоянный
Битрейт : 128 Кбит/сек
Каналы : 2 канала
Channel layout : L R
Частота : 48,0 КГц
Частота кадров : 31,250 кадров/сек (1536 SPF)
Метод сжатия : С потерями
Размер потока : 136 Мбайт (2%)
Заголовок : AVO [ Ю. Живов]
Язык : Русский
Service kind : Complete Main
Default : Нет
Forced : Нет
Duration_Source : General_Duration

Аудио #6
Идентификатор : 7
Формат : AC-3
Формат/Информация : Audio Coding 3
Коммерческое название : Dolby Digital
Идентификатор кодека : A_AC3
Продолжительность : 2 ч. 28 м.
Вид битрейта : Постоянный
Битрейт : 448 Кбит/сек
Каналы : 6 каналов
Channel layout : L R C LFE Ls Rs
Частота : 48,0 КГц
Частота кадров : 31,250 кадров/сек (1536 SPF)
Метод сжатия : С потерями
Размер потока : 475 Мбайт (6%)
Язык : Английский
Service kind : Complete Main
Default : Нет
Forced : Нет
Duration_Source : General_Duration

Текст #1
Идентификатор : 8
Формат : UTF-8
Идентификатор кодека : S_TEXT/UTF8
Идентификатор кодека/Информация : UTF-8 Plain Text
Язык : Русский
Default : Нет
Forced : Нет

Текст #2
Идентификатор : 9
Формат : UTF-8
Идентификатор кодека : S_TEXT/UTF8
Идентификатор кодека/Информация : UTF-8 Plain Text
Язык : Английский
Default : Нет
Forced : Нет

Меню
00:00:00.000 : en:01. Main Titles / The Englishwoman
00:05:34.500 : en:02. The Palace
00:10:06.606 : en:03. Meeting The King
00:15:43.075 : en:04. The Royal Family
00:22:22.641 : en:05. The Royal School
00:32:05.456 : en:06. Slavery
00:40:48.612 : en:07. The King's Approval
00:46:27.117 : en:08. The Rice Festival
00:50:51.348 : en:09. Burmese Death Squads
00:53:21.031 : en:10. A Royal Party
01:07:31.614 : en:11. The Marketplace
01:10:56.919 : en:12. A Small Gift
01:16:08.964 : en:13. Fever
01:23:14.222 : en:14. A Letter
01:29:19.187 : en:15. An Attack
01:37:07.321 : en:16. Tuptim
01:49:44.110 : en:17. Kincaid's Information
01:53:17.774 : en:18. Nong Khai
02:13:49.588 : en:19. The White Elephant
02:21:05.790 : en:20. End Titles
Оскар, 2000 год
Номинации (2):
Лучшие декорации
Лучшие костюмы

Золотой глобус, 2000 год
Номинации (2):
Лучшая песня — «How Can I Not Love You»
Лучший саундтрек






Релиз от:


У вас нет необходимых прав для просмотра вложений в этом сообщении.


Вернуться к началу
 Профиль  
Ответить с цитатой  
  • Торрент
Автор: Consultants Хэш: ---
Добавлен: 2020-12-03 11:03 Приватный: Нет (DHT включён)
Статус: Проверен
Размер: 7.76 ГБ (8 333 959 889 байт)
Изменил:
---
Скачали: 126 (Раздающих: 0%)
Причина:
---
Здоровье: 100%
Сидеров: 16 Личеров: 4
Скорость раздачи: 0 байт/сек Скорость скачивания: 0 байт/сек
Последний сидер: 23 дня 6 часов 26 минут 34 секунды назад Последний личер: 23 дня 6 часов 26 минут 34 секунды назад
Для скачивания торрента необходимо зарегистрироваться или войти на трекер.
Показать сообщения за:  Поле сортировки  
Начать новую тему Ответить на тему  [ 1 сообщение ] 

Часовой пояс: UTC + 3 часа


Кто сейчас на конференции

Сейчас этот форум просматривают: нет зарегистрированных пользователей и гости: 6


Вы не можете начинать темы
Вы не можете отвечать на сообщения
Вы не можете редактировать свои сообщения
Вы не можете удалять свои сообщения
Вы не можете добавлять вложения

Найти:
Перейти:  
Переместиться наверх
 Главная |  Список форумов |   Time : 0.087s | 17 Queries | GZIP : Off |
tracker_cron