Часовой пояс: UTC + 3 часа




Начать новую тему Ответить на тему  [ 1 сообщение ] 
Автор Сообщение
СообщениеДобавлено: 2020-12-03 11:04 
Не в сети
Администратор
Администратор
Аватара пользователя
Раздал: 1.44 ТБ
Скачал: 9.17 ГБ
Ратио: 160.627


Зарегистрирован: 2014-03-16 00:45
Сообщения: 3300
#777

Название: Охота на Санту
Оригинальное название: Fatman
Год выпуска: 2020
Страна: Великобритания, Канада, США
Студия: США,Carte Blanche, Fortitude International, Ingenious
Продолжительность: 01:35:41
Перевод: Авторский одноголосый (Важенин (BadBajo))
Жанр: Фэнтези, боевик, триллер, комедия

Режиссер: Эшом Нелмс, Йен Нелмс

В ролях: Мэл Гибсон, Уолтон Гоггинс, Марианн Жан-Баптист, Чэнс Херстфилд, Шон Бенсон, Паулино Нюнс, Марк Дэй, Дебора Гровер, Мишель Мисти Лэнг, Роберт Бокстэл

О фильме:
12-летний Билли за свое отвратительное поведение получает на Рождество от Санта-Клауса настоящий кусок угля. Мальчик не желает мириться с таким положением дел и нанимает профессионального киллера, чтобы тот убил Санта-Клауса.



Файл
Формат: Matroska
Качество: WEB-DLRip 720p
Видео: 1272x530 at 25.000 fps, x264@L4.1, ~2348 kbps
Аудио #01: 48 kHz, AC3, 2.0, 192 Kbps | RUS |
Аудио #02: 48 kHz, AC3, 2.0, 192 Kbps | Оригинал | ENG |
Субтитры: Нет

***Релиз от: -=DoMiNo=-

x264 [info]: frame I:1267 Avg QP:14.12 size: 71474
x264 [info]: frame P:34012 Avg QP:15.52 size: 24742
x264 [info]: frame B:108268 Avg QP:17.28 size: 6956

General
Format : Matroska
Format version : Version 4
File size : 1.83 GiB
Duration : 1 h 35 min
Overall bit rate : 2 734 kb/s
Movie name : Охота на Санту.(2020).WEB-DLRip.720p.[-=DoMiNo=-]
Encoded date : UTC 2020-11-20 13:41:40
Writing application : mkvmerge v8.3.0 ('Over the Horizon') 64bit
Writing library : libebml v1.3.1 + libmatroska v1.4.2
Cover : Yes
Attachments : Cover.jpg / Cover 2.jpg

Video
ID : 1
Format : AVC
Format/Info : Advanced Video Codec
Format profile : High@L4.1
Format settings : CABAC / 9 Ref Frames
Format settings, CABAC : Yes
Format settings, Reference : 9 frames
Codec ID : V_MPEG4/ISO/AVC
Duration : 1 h 35 min
Bit rate : 2 348 kb/s
Width : 1 272 pixels
Height : 530 pixels
Display aspect ratio : 2.40:1
Frame rate mode : Constant
Frame rate : 25.000 FPS
Color space : YUV
Chroma subsampling : 4:2:0
Bit depth : 8 bits
Scan type : Progressive
Bits/(Pixel*Frame) : 0.139
Stream size : 1.57 GiB (86%)
Title : -=DoMiNo=-
Writing library : x264 core 161 r3027 4121277
Encoding settings : cabac=1 / ref=9 / deblock=1:-2:-2 / analyse=0x3:0x133 / me=umh / subme=10 / psy=1 / psy_rd=1.00:0.15 / mixed_ref=1 / me_range=32 / chroma_me=1 / trellis=2 / 8x8dct=1 / cqm=0 / deadzone=21,11 / fast_pskip=1 / chroma_qp_offset=-3 / threads=6 / lookahead_threads=1 / sliced_threads=0 / nr=0 / decimate=1 / interlaced=0 / bluray_compat=0 / constrained_intra=0 / bframes=9 / b_pyramid=2 / b_adapt=2 / b_bias=0 / direct=1 / weightb=1 / open_gop=0 / weightp=2 / keyint=250 / keyint_min=25 / scenecut=40 / intra_refresh=0 / rc=crf / mbtree=0 / crf=19.0 / qcomp=0.60 / qpmin=0 / qpmax=69 / qpstep=4 / ip_ratio=1.40 / pb_ratio=1.30 / aq=3:1.00
Language : English
Default : Yes
Forced : No
Color range : Limited
Color primaries : BT.709
Transfer characteristics : BT.709
Matrix coefficients : BT.709

Audio #1
ID : 2
Format : AC-3
Format/Info : Audio Coding 3
Commercial name : Dolby Digital
Codec ID : A_AC3
Duration : 1 h 35 min
Bit rate mode : Constant
Bit rate : 192 kb/s
Channel(s) : 2 channels
Channel layout : L R
Sampling rate : 48.0 kHz
Frame rate : 31.250 FPS (1536 SPF)
Compression mode : Lossy
Stream size : 131 MiB (7%)
Title : AVO_[BadBajo]
Language : Russian
Service kind : Complete Main
Default : Yes
Forced : No

Audio #2
ID : 3
Format : AC-3
Format/Info : Audio Coding 3
Commercial name : Dolby Digital
Codec ID : A_AC3
Duration : 1 h 35 min
Bit rate mode : Constant
Bit rate : 192 kb/s
Channel(s) : 2 channels
Channel layout : L R
Sampling rate : 48.0 kHz
Frame rate : 31.250 FPS (1536 SPF)
Compression mode : Lossy
Stream size : 131 MiB (7%)
Language : English
Service kind : Complete Main
Default : No
Forced : No

Menu
00:00:00.000 : :Глава 1
00:09:38.000 : :Глава 2
00:18:24.000 : :Глава 3
00:25:46.000 : :Глава 4
00:36:30.000 : :Глава 5
00:45:04.000 : :Глава 6
00:55:28.000 : :Глава 7
01:04:34.000 : :Глава 8
01:12:04.000 : :Глава 9
01:18:00.000 : :Глава 10
01:26:24.000 : :Глава 11


У вас нет необходимых прав для просмотра вложений в этом сообщении.


Вернуться к началу
 Профиль  
Ответить с цитатой  
  • Торрент
Автор: Consultants Хэш: ---
Добавлен: 2020-12-03 11:04 Приватный: Нет (DHT включён)
Статус: Проверен
Размер: 1.83 ГБ (1 962 463 959 байт)
Изменил:
---
Скачали: 15835 (Раздающих: 0%)
Причина:
---
Здоровье: 100%
Сидеров: 1084 Личеров: 45
Скорость раздачи: 0 байт/сек Скорость скачивания: 0 байт/сек
Последний сидер: 23 дня 7 часов 17 минут 29 секунд назад Последний личер: 23 дня 7 часов 17 минут 29 секунд назад
Для скачивания торрента необходимо зарегистрироваться или войти на трекер.
Показать сообщения за:  Поле сортировки  
Начать новую тему Ответить на тему  [ 1 сообщение ] 

Часовой пояс: UTC + 3 часа


Кто сейчас на конференции

Сейчас этот форум просматривают: нет зарегистрированных пользователей и гости: 8


Вы не можете начинать темы
Вы не можете отвечать на сообщения
Вы не можете редактировать свои сообщения
Вы не можете удалять свои сообщения
Вы не можете добавлять вложения

Найти:
Перейти:  
Переместиться наверх
 Главная |  Список форумов |   Time : 0.096s | 17 Queries | GZIP : Off |
tracker_cron