Часовой пояс: UTC + 3 часа




Начать новую тему Ответить на тему  [ 1 сообщение ] 
Автор Сообщение
СообщениеДобавлено: 2020-12-10 06:35 
Не в сети
Супермодератор
Супермодератор
Аватара пользователя
Раздал: 21.76 ГБ
Скачал: 0 байт
Ратио: Seed.


Зарегистрирован: 2018-11-16 11:27
Сообщения: 309
Близкие контакты третьей степени / Close Encounters of the Third Kind


#777

Информация о фильме
Название: Близкие контакты третьей степени
Оригинальное название: Close Encounters of the Third Kind
Год выхода: 1977
Страна: США
Продолжительность: 02:17:14
Перевод #1: Профессиональный (Многоголосый, Закадровый)
Перевод #2: Авторский (Одноголосый, Закадровый) (Сергей Визгунов)
Жанр: фантастика, драма, приключения

Режиссер: Стивен Спилберг

В ролях:
Ричард Дрейфусс, Франсуа Трюффо, Тери Гарр, Мелинда Диллон, Боб Бэлабан, Дж. Патрик МакНамара, Уоррен Дж. Кеммерлинг, Робертс Блоссом, Филип Доддс, Кэри Гуффи

Описание:
Сбои в подаче электроэнергии, возвращение из ниоткуда самолетов, исчезнувших в 1945 году, обескураживают ученых. Наименее скептичные люди науки расценивают эти явления, как прямое доказательство существования разумной инопланетной формы жизни. Рой Неари едет в пустыню, где были найдены самолеты, чтобы провести собственное расследование. Ночью его автомобиль застревает на шоссе. Неожиданно в темном небе появляется загадочный источник яркого света. Всего на мгновенье Неари попадает под его лучи, несущие информацию из далеких миров. После контакта с внеземной цивилизацией Рой оказывается во власти странных видений, и это происходит не только с ним…



Файл
Формат: MKV
Качество: BDRip 720p (Источник: Blu-ray Remux)
Видео: 1280x544 (2.35:1), 23.976 fps, 4112 kbps, 0.246 bit/pixel
Аудио #1: AC-3, 2 ch, 224 kbps (Многоголосый)
Аудио #2: AC-3, 2 ch, 224 kbps (Одноголосый Сергей Визгунов)
Субтитры: Русские (Полные), Английские (Полные)


General
Unique ID : 181244538554998360901130629416964598884 (0x885A6DAC038662B4AD361FA2A5582C64)
Complete name : Close.Encounters.of.the.Third.Kind.1977.BDRip.720p.mkv
Format : Matroska
Format version : Version 2
File size : 4.37 GiB
Duration : 2h 17mn
Overall bit rate : 4 560 Kbps
Encoded date : UTC 2014-01-12 23:21:27
Writing application : mkvmerge v5.6.0 ('Kenya Kane') built on May 27 2012 16:44:04
Writing library : libebml v1.2.3 + libmatroska v1.3.0

Video
ID : 1
Format : AVC
Format/Info : Advanced Video Codec
Format profile : High@L4.1
Format settings, CABAC : Yes
Format settings, ReFrames : 8 frames
Codec ID : V_MPEG4/ISO/AVC
Duration : 2h 17mn
Bit rate : 4 112 Kbps
Width : 1 280 pixels
Height : 544 pixels
Display aspect ratio : 2.35:1
Frame rate mode : Constant
Frame rate : 23.976 fps
Color space : YUV
Chroma subsampling : 4:2:0
Bit depth : 8 bits
Scan type : Progressive
Bits/(Pixel*Frame) : 0.246
Stream size : 3.85 GiB (88%)
Title : Близкие контакты третьей степени / Close Encounters of the Third Kind (1977)
Writing library : x264 core 130 r2273 b3065e6
Encoding settings : cabac=1 / ref=8 / deblock=1:-3:-3 / analyse=0x3:0x113 / me=umh / subme=11 / psy=1 / psy_rd=1.00:0.00 / mixed_ref=1 / me_range=32 / chroma_me=1 / trellis=2 / 8x8dct=1 / cqm=0 / deadzone=21,11 / fast_pskip=1 / chroma_qp_offset=-2 / threads=6 / lookahead_threads=1 / sliced_threads=0 / nr=0 / decimate=1 / interlaced=0 / bluray_compat=0 / constrained_intra=0 / bframes=6 / b_pyramid=2 / b_adapt=2 / b_bias=0 / direct=3 / weightb=1 / open_gop=0 / weightp=2 / keyint=240 / keyint_min=23 / scenecut=40 / intra_refresh=0 / rc=2pass / mbtree=0 / bitrate=4112 / ratetol=1.0 / qcomp=0.60 / qpmin=0 / qpmax=69 / qpstep=4 / cplxblur=20.0 / qblur=0.5 / ip_ratio=1.40 / pb_ratio=1.30 / aq=1:1.00
Language : English
Default : Yes
Forced : No
Color primaries : BT.709
Transfer characteristics : BT.709
Matrix coefficients : BT.709

Audio #1
ID : 2
Format : AC-3
Format/Info : Audio Coding 3
Mode extension : CM (complete main)
Format settings, Endianness : Big
Codec ID : A_AC3
Duration : 2h 17mn
Bit rate mode : Constant
Bit rate : 224 Kbps
Channel count : 2 channels
Channel positions : Front: L R
Sampling rate : 48.0 KHz
Bit depth : 16 bits
Compression mode : Lossy
Stream size : 220 MiB (5%)
Title : Многоголосый 2.0
Language : Russian
Default : Yes
Forced : No

Audio #2
ID : 3
Format : AC-3
Format/Info : Audio Coding 3
Mode extension : CM (complete main)
Format settings, Endianness : Big
Codec ID : A_AC3
Duration : 2h 17mn
Bit rate mode : Constant
Bit rate : 224 Kbps
Channel count : 2 channels
Channel positions : Front: L R
Sampling rate : 48.0 KHz
Bit depth : 16 bits
Compression mode : Lossy
Stream size : 220 MiB (5%)
Title : Сергей Визгунов 2.0
Language : Russian
Default : No
Forced : No

Text #1
ID : 4
Format : UTF-8
Codec ID : S_TEXT/UTF8
Codec ID/Info : UTF-8 Plain Text
Title : Русские (Полные)
Language : Russian
Default : No
Forced : No

Text #2
ID : 5
Format : UTF-8
Codec ID : S_TEXT/UTF8
Codec ID/Info : UTF-8 Plain Text
Title : Английские (Полные)
Language : English
Default : No
Forced : No


У вас нет необходимых прав для просмотра вложений в этом сообщении.


Вернуться к началу
 Профиль  
Ответить с цитатой  
  • Торрент
Автор: Klingon Хэш: ---
Добавлен: 2020-12-10 06:35 Приватный: Нет (DHT включён)
Статус: Проверен
Размер: 4.37 ГБ (4 693 652 394 байт)
Изменил:
---
Скачали: 326 (Раздающих: 0%)
Причина:
---
Здоровье: 100%
Сидеров: 3 Личеров: 1
Скорость раздачи: 0 байт/сек Скорость скачивания: 0 байт/сек
Последний сидер: 19 дней 13 часов 38 минут 53 секунды назад Последний личер: 19 дней 13 часов 38 минут 53 секунды назад
Для скачивания торрента необходимо зарегистрироваться или войти на трекер.
Показать сообщения за:  Поле сортировки  
Начать новую тему Ответить на тему  [ 1 сообщение ] 

Часовой пояс: UTC + 3 часа


Кто сейчас на конференции

Сейчас этот форум просматривают: нет зарегистрированных пользователей и гости: 2


Вы не можете начинать темы
Вы не можете отвечать на сообщения
Вы не можете редактировать свои сообщения
Вы не можете удалять свои сообщения
Вы не можете добавлять вложения

Найти:
Перейти:  
cron
Переместиться наверх
 Главная |  Список форумов |   Time : 0.098s | 19 Queries | GZIP : Off |
tracker_cron