Часовой пояс: UTC + 3 часа




Начать новую тему Ответить на тему  [ 1 сообщение ] 
Автор Сообщение
 Заголовок сообщения: Быть Чарли / Being Charlie (2015) BDRip 720p | L1
СообщениеДобавлено: 2020-12-10 06:35 
Не в сети
Супермодератор
Супермодератор
Аватара пользователя
Раздал: 21.76 ГБ
Скачал: 0 байт
Ратио: Seed.


Зарегистрирован: 2018-11-16 11:27
Сообщения: 309
Быть Чарли / Being Charlie


#777

Информация о фильме
Название: Быть Чарли
Оригинальное название: Being Charlie
Год выхода: 2015
Страна: США
Продолжительность: 01:37:58
Перевод: Любительский (Одноголосый, Закадровый) (Perevodman)
Жанр: драма, мелодрама

Режиссер: Роб Райнер

В ролях: Ник Робинсон, Морган Сэйлор, Девон Бостик, Сьюзэн Миснер, Рикардо Чавира, Коммон, Кэри Элвес, Кристи Саммерхэйс, Эрик Од, Richard Sharrah

Описание: 18-летний Чарли доставляет много хлопот своим близким. Совершив побег из клиники, куда его поместили для лечения наркозависимости, он возвращается домой в Лос-Анджелес. Но родители по-прежнему очень беспокоятся за сына, и поэтому они вынуждены отправить его в реабилитационный центр для взрослых. Там парень знакомится с Евой, красивой, но очень беспокойной девушкой. Чарли пытается справиться с новыми для себя чувствами, старается избавиться от своей зависимости и примириться с назревающим разводом родителей.





Файл
Формат: MKV
Качество: BDRip 720p (Источник: Blu-ray Remux)
Видео: 1280x690 (1.85:1), 23.976 fps, 5108 kbps, 0.241 bit/pixel
Аудио #1: AC-3, 6 ch, 640 kbps (Одноголосый Perevodman)
Аудио #2: AC-3, 6 ch, 640 kbps (Английский Оригинал)
Субтитры: Русские (Полные)
Скачать: Семпл


General
Unique ID : 242030082480396299489571109089089325085 (0xB6154C5F4C9A05D4BD269F131E0E881D)
Complete name : Being.Charlie.2015.BDRip.AVC.720p.AVO.mkv
Format : Matroska
Format version : Version 2
File size : 4.37 GiB
Duration : 1 h 37 min
Overall bit rate mode : Variable
Overall bit rate : 6 390 kb/s
Encoded date : UTC 2020-11-27 04:57:52
Writing application : mkvmerge v5.6.0 ('Kenya Kane') built on May 27 2012 16:44:04
Writing library : libebml v1.2.3 + libmatroska v1.3.0
Cover : Yes
Attachments : Cover.png

Video
ID : 1
Format : AVC
Format/Info : Advanced Video Codec
Format profile : High@L3.1
Format settings : CABAC / 4 Ref Frames
Format settings, CABAC : Yes
Format settings, RefFrames : 4 frames
Codec ID : V_MPEG4/ISO/AVC
Duration : 1 h 37 min
Bit rate mode : Variable
Bit rate : 5 108 kb/s
Maximum bit rate : 40.0 Mb/s
Width : 1 280 pixels
Height : 690 pixels
Display aspect ratio : 1.85:1
Frame rate mode : Constant
Frame rate : 23.976 (24000/1001) FPS
Color space : YUV
Chroma subsampling : 4:2:0
Bit depth : 8 bits
Scan type : Progressive
Bits/(Pixel*Frame) : 0.241
Stream size : 3.41 GiB (78%)
Title : Быть Чарли / Being Charlie (2015)
Writing library : x264 core 142 r2479 dd79a61
Encoding settings : cabac=1 / ref=4 / deblock=1:0:0 / analyse=0x3:0x113 / me=umh / subme=9 / psy=1 / psy_rd=1.00:0.00 / mixed_ref=1 / me_range=16 / chroma_me=1 / trellis=1 / 8x8dct=1 / cqm=0 / deadzone=21,11 / fast_pskip=1 / chroma_qp_offset=-2 / threads=18 / lookahead_threads=1 / sliced_threads=0 / nr=0 / decimate=1 / interlaced=0 / bluray_compat=0 / constrained_intra=0 / bframes=3 / b_pyramid=2 / b_adapt=1 / b_bias=0 / direct=1 / weightb=1 / open_gop=0 / weightp=2 / keyint=240 / keyint_min=24 / scenecut=40 / intra_refresh=0 / rc_lookahead=40 / rc=2pass / mbtree=1 / bitrate=5108 / ratetol=1.0 / qcomp=0.60 / qpmin=0 / qpmax=69 / qpstep=4 / cplxblur=20.0 / qblur=0.5 / ip_ratio=1.40 / aq=1:1.0
Language : English
Default : Yes
Forced : No
Color range : Limited
Color primaries : BT.709
Transfer characteristics : BT.709
Matrix coefficients : BT.709

Audio #1
ID : 2
Format : AC-3
Format/Info : Audio Coding 3
Codec ID : A_AC3
Duration : 1 h 37 min
Bit rate mode : Constant
Bit rate : 640 kb/s
Channel(s) : 6 channels
Channel positions : Front: L C R, Side: L R, LFE
Sampling rate : 48.0 kHz
Frame rate : 31.250 FPS (1536 SPF)
Bit depth : 16 bits
Compression mode : Lossy
Stream size : 448 MiB (10%)
Title : Одноголосый 5.1 (Perevodman)
Language : Russian
Service kind : Complete Main
Default : Yes
Forced : No

Audio #2
ID : 3
Format : AC-3
Format/Info : Audio Coding 3
Codec ID : A_AC3
Duration : 1 h 37 min
Bit rate mode : Constant
Bit rate : 640 kb/s
Channel(s) : 6 channels
Channel positions : Front: L C R, Side: L R, LFE
Sampling rate : 48.0 kHz
Frame rate : 31.250 FPS (1536 SPF)
Bit depth : 16 bits
Compression mode : Lossy
Stream size : 448 MiB (10%)
Title : Английский 5.1 (Оригинал)
Language : English
Service kind : Complete Main
Default : No
Forced : No

Text
ID : 4
Format : UTF-8
Codec ID : S_TEXT/UTF8
Codec ID/Info : UTF-8 Plain Text
Title : Русские (Полные)
Language : Russian
Default : No
Forced : No


У вас нет необходимых прав для просмотра вложений в этом сообщении.


Вернуться к началу
 Профиль  
Ответить с цитатой  
  • Торрент
Автор: Klingon Хэш: ---
Добавлен: 2020-12-10 06:35 Приватный: Нет (DHT включён)
Статус: Проверен
Размер: 4.37 ГБ (4 694 963 282 байт)
Изменил:
---
Скачали: 96 (Раздающих: 0%)
Причина:
---
Здоровье: 100%
Сидеров: 1 Личеров: 1
Скорость раздачи: 0 байт/сек Скорость скачивания: 0 байт/сек
Последний сидер: 20 дней 4 часа 10 минут 55 секунд назад Последний личер: 20 дней 4 часа 10 минут 55 секунд назад
Для скачивания торрента необходимо зарегистрироваться или войти на трекер.
Показать сообщения за:  Поле сортировки  
Начать новую тему Ответить на тему  [ 1 сообщение ] 

Часовой пояс: UTC + 3 часа


Кто сейчас на конференции

Сейчас этот форум просматривают: нет зарегистрированных пользователей и гости: 12


Вы не можете начинать темы
Вы не можете отвечать на сообщения
Вы не можете редактировать свои сообщения
Вы не можете удалять свои сообщения
Вы не можете добавлять вложения

Найти:
Перейти:  
Переместиться наверх
 Главная |  Список форумов |   Time : 0.089s | 15 Queries | GZIP : Off |
tracker_cron