Часовой пояс: UTC + 3 часа




Начать новую тему Ответить на тему  [ 1 сообщение ] 
Автор Сообщение
СообщениеДобавлено: 2020-12-31 22:10 
Не в сети
Аватара пользователя
Раздал: 0 байт
Скачал: 0 байт
Ратио: Inf.


Зарегистрирован: 2012-12-16 02:02
Сообщения: 107
#777

Название: Всегда есть завтра
Оригинальное название: There's Always Tomorrow
Год выпуска: 1955
Страна: США
Продолжительность: 01:24:40
Жанр: драма, мелодрама

Режиссер: Дуглас Сирк

В ролях:
Барбара Стэнвик, Фред МакМюррэй, Джоан Беннетт, Уильям Рейнольдс, Пэт Краули, Жижи Перро, Джейн Дарвелл, Рейс Гентри, Мирна Хансен, Джуди Наджент, Пол Смит, Хелен Клееб, Шила Бромли, Бинни Барнс, Джин Байрон

О фильме:
Клиффорд, рабочий на фабрике игрушек, впадает в депрессию — жена перестала замечать его, а дети считают отца ничтожеством. Но всё меняется, когда в его жизни появляется Норма - бывшая сотрудница и давняя любовь...



Качество: BDRip 720p
Формат: MKV
Видео: MPEG-4 AVC, 10.2 Mбит/с, 1280x694, 23.976 кадр/с
Аудио 1: русский, DTS, 1509 kbps, 2 ch, 48 kHz [авторский, Дмитрий Есарев]
Аудио 2: английский, DTS, 1509 kbps, 2 ch, 48 kHz [оригинал]
Субтитры 1: русские (SRT) (Bums)
Субтитры 2: английские (SRT)
Главы/чаптеры
---[Information] [09.12.2020 5:34:49] x264 [info]: frame I:631 Avg QP:19.74 size:114306
---[Information] [09.12.2020 5:34:49] x264 [info]: frame P:21730 Avg QP:21.04 size: 75543
---[Information] [09.12.2020 5:34:49] x264 [info]: frame B:99439 Avg QP:23.42 size: 47626
---[Information] [09.12.2020 5:34:49] x264 [info]: consecutive B-frames: 0.7% 0.2% 1.1% 8.4% 12.2% 68.3% 7.1% 1.0% 0.9%
---[Information] [09.12.2020 5:34:49] x264 [info]: mb I I16..4: 1.9% 89.8% 8.3%
---[Information] [09.12.2020 5:34:49] x264 [info]: mb P I16..4: 0.2% 29.3% 0.9% P16..4: 23.7% 31.5% 13.3% 0.0% 0.0% skip: 1.1%
---[Information] [09.12.2020 5:34:49] x264 [info]: mb B I16..4: 0.0% 9.7% 0.1% B16..8: 37.6% 21.9% 6.2% direct:11.3% skip:13.1% L0:45.1% L1:39.7% BI:15.2%
---[Information] [09.12.2020 5:34:49] x264 [info]: 8x8 transform intra:97.5% inter:61.7%
---[Information] [09.12.2020 5:34:49] x264 [info]: coded y,uvDC,uvAC intra: 98.4% 0.2% 0.2% inter: 57.4% 0.1% 0.1%
---[Information] [09.12.2020 5:34:49] x264 [info]: i16 v,h,dc,p: 71% 9% 6% 13%
---[Information] [09.12.2020 5:34:49] x264 [info]: i8 v,h,dc,ddl,ddr,vr,hd,vl,hu: 11% 6% 14% 10% 15% 12% 11% 11% 11%
---[Information] [09.12.2020 5:34:49] x264 [info]: i4 v,h,dc,ddl,ddr,vr,hd,vl,hu: 16% 5% 5% 10% 16% 15% 12% 11% 11%
---[Information] [09.12.2020 5:34:49] x264 [info]: i8c dc,h,v,p: 66% 34% 0% 0%
---[Information] [09.12.2020 5:34:49] x264 [info]: Weighted P-Frames: Y:28.3% UV:0.3%
---[Information] [09.12.2020 5:34:49] x264 [info]: ref P L0: 34.8% 8.6% 17.3% 10.2% 8.4% 6.6% 5.9% 3.6% 3.4% 1.0% 0.0%
---[Information] [09.12.2020 5:34:49] x264 [info]: ref B L0: 68.2% 12.2% 7.2% 4.2% 3.3% 2.8% 1.6% 0.6%
---[Information] [09.12.2020 5:34:49] x264 [info]: ref B L1: 93.8% 6.2%
---[Information] [09.12.2020 5:34:50] x264 [info]: kb/s:10156.67
---[Information] [09.12.2020 5:34:50] encoded 121800 frames, 2.03 fps, 10156.67 kb/s

Общее
Уникальный идентификатор : 234720147833122523821778310977390807997 (0xB09574C4B123802FAD900CCBDABE8BBD)
Полное имя : D:VideoВсегда есть завтра.1956.BDRip 720p msltel.mkv
Формат : Matroska
Версия формата : Version 4
Размер файла : 7,79 Гбайт
Продолжительность : 1 ч. 24 м.
Общий поток : 13,2 Мбит/сек
Название фильма : Всегда есть завтра.1956.BDRip msltel
Дата кодирования : UTC 2020-12-09 02:12:55
Программа кодирования : mkvmerge v8.2.0 ('World of Adventure') 64bit
Библиотека кодирования : libebml v1.3.1 + libmatroska v1.4.2

Видео
Идентификатор : 1
Формат : AVC
Формат/Информация : Advanced Video Codec
Профиль формата : High@L4.1
Настройки формата : CABAC / 9 Ref Frames
Параметр CABAC формата : Да
Параметр RefFrames формата : 9 кадров
Идентификатор кодека : V_MPEG4/ISO/AVC
Продолжительность : 1 ч. 24 м.
Битрейт : 10,2 Мбит/сек
Ширина : 1 280 пикселей
Высота : 694 пикселя
Соотношение сторон : 1,85:1
Режим частоты кадров : Постоянный
Частота кадров : 23,976 (24000/1001) кадра/сек
Цветовое пространство : YUV
Субдискретизация насыщенности : 4:2:0
Битовая глубина : 8 бит
Тип развёртки : Прогрессивная
Бит/(Пиксели*Кадры) : 0.477
Размер потока : 6,01 Гбайт (77%)
Библиотека кодирования : x264 core 161 r3018 db0d417
Настройки программы : cabac=1 / ref=9 / deblock=1:-2:-2 / analyse=0x3:0x113 / me=umh / subme=11 / psy=1 / psy_rd=1.00:0.00 / mixed_ref=1 / me_range=32 / chroma_me=1 / trellis=2 / 8x8dct=1 / cqm=0 / deadzone=21,11 / fast_pskip=0 / chroma_qp_offset=-2 / threads=6 / lookahead_threads=1 / sliced_threads=0 / nr=0 / decimate=0 / interlaced=0 / bluray_compat=0 / constrained_intra=0 / bframes=8 / b_pyramid=2 / b_adapt=2 / b_bias=0 / direct=1 / weightb=1 / open_gop=0 / weightp=2 / keyint=230 / keyint_min=23 / scenecut=40 / intra_refresh=0 / rc_lookahead=40 / rc=crf / mbtree=0 / crf=19.0 / qcomp=0.60 / qpmin=0 / qpmax=69 / qpstep=4 / vbv_maxrate=62500 / vbv_bufsize=78125 / crf_max=0.0 / nal_hrd=none / filler=0 / ip_ratio=1.40 / pb_ratio=1.30 / aq=3:1.00
Язык : English
Default : Да
Forced : Нет

Аудио #1
Идентификатор : 2
Формат : DTS
Формат/Информация : Digital Theater Systems
Идентификатор кодека : A_DTS
Продолжительность : 1 ч. 24 м.
Вид битрейта : Постоянный
Битрейт : 1 509 Кбит/сек
Каналы : 2 канала
Channel layout : L R
Частота : 48,0 КГц
Частота кадров : 93,750 кадра/сек (512 SPF)
Битовая глубина : 16 бит
Метод сжатия : С потерями
Размер потока : 914 Мбайт (11%)
Заголовок : Дмитрий Есарев
Язык : Russian
Default : Да
Forced : Нет

Аудио #2
Идентификатор : 3
Формат : DTS
Формат/Информация : Digital Theater Systems
Идентификатор кодека : A_DTS
Продолжительность : 1 ч. 24 м.
Вид битрейта : Постоянный
Битрейт : 1 509 Кбит/сек
Каналы : 2 канала
Channel layout : L R
Частота : 48,0 КГц
Частота кадров : 93,750 кадра/сек (512 SPF)
Битовая глубина : 16 бит
Метод сжатия : С потерями
Размер потока : 914 Мбайт (11%)
Заголовок : оригинал
Язык : English
Default : Нет
Forced : Нет

Текст #1
Идентификатор : 4
Формат : UTF-8
Идентификатор кодека : S_TEXT/UTF8
Идентификатор кодека/Информация : UTF-8 Plain Text
Продолжительность : 1 ч. 23 м.
Битрейт : 127 бит/сек
Count of elements : 1661
Размер потока : 77,7 Кбайт (0%)
Заголовок : русские
Язык : Russian
Default : Нет
Forced : Нет

Текст #2
Идентификатор : 5
Формат : UTF-8
Идентификатор кодека : S_TEXT/UTF8
Идентификатор кодека/Информация : UTF-8 Plain Text
Продолжительность : 1 ч. 23 м.
Битрейт : 86 бит/сек
Count of elements : 1553
Размер потока : 53,0 Кбайт (0%)
Заголовок : английские
Язык : English
Default : Нет
Forced : Нет

Меню
00:00:00.000 : :
00:09:59.140 : :
00:20:21.679 : :
00:30:18.483 : :
00:40:44.651 : :
00:54:39.234 : :
01:07:49.482 : :
01:14:46.649 : :



У вас нет необходимых прав для просмотра вложений в этом сообщении.


Вернуться к началу
 Профиль  
Ответить с цитатой  
  • Торрент
Автор: Sovetnik Хэш: ---
Добавлен: 2020-12-31 22:10 Приватный: Нет (DHT включён)
Статус: Проверен
Размер: 7.79 ГБ (8 367 971 196 байт)
Изменил:
---
Скачали: 43 (Раздающих: 0%)
Причина:
---
Здоровье: 100%
Сидеров: 1 Личеров: 0
Скорость раздачи: 0 байт/сек Скорость скачивания: 0 байт/сек
Последний сидер: 20 дней 6 часов 46 минут 57 секунд назад Последний личер: Нет
Для скачивания торрента необходимо зарегистрироваться или войти на трекер.
Показать сообщения за:  Поле сортировки  
Начать новую тему Ответить на тему  [ 1 сообщение ] 

Часовой пояс: UTC + 3 часа


Кто сейчас на конференции

Сейчас этот форум просматривают: нет зарегистрированных пользователей и гости: 5


Вы не можете начинать темы
Вы не можете отвечать на сообщения
Вы не можете редактировать свои сообщения
Вы не можете удалять свои сообщения
Вы не можете добавлять вложения

Найти:
Перейти:  
cron
Переместиться наверх
 Главная |  Список форумов |   Time : 0.092s | 15 Queries | GZIP : Off |