Часовой пояс: UTC + 3 часа




Начать новую тему Ответить на тему  [ 1 сообщение ] 
Автор Сообщение
СообщениеДобавлено: 2021-01-16 21:04 
Не в сети
Супермодератор
Супермодератор
Аватара пользователя
Раздал: 21.76 ГБ
Скачал: 0 байт
Ратио: Seed.


Зарегистрирован: 2018-11-16 11:27
Сообщения: 309
#777

Информация о фильме
Название: Питер Пэн и Алиса в стране чудес
Оригинальное название: Come Away
Год выхода: 2020
Выпущено: Великобритания, США
Студия: Endurance Media, Hammerstone Studios, Lakeview Entertainment
Продолжительность: 01:33:53
Озвучивание: Дублированный | iTunes
Жанр: фэнтези, драма, приключения

Режиссер: Бренда Чепмен

В ролях: Анджелина Джоли, Майкл Кейн, Гугу Мбата-Роу, Дерек Джекоби, Дэвид Ойелоуо, Анна Чэнселлор, Кларк Питерс, Дэвид Гяси, Роджер Эштон-Гриффитс, Джордан А. Нэш, Дженни Гэлловэй

О фильме:
Удивительно, но прежде чем Алиса отправилась в Страну чудес, а Питер стал Пэном, они были братом и сестрой. Их легендарные приключения начались благодаря силе воображения, унаследованного от любящей матери и фантазера-отца. С какими бы испытаниями ни сталкивалась их семья, они никогда не забывали мечтать. Безумный Шляпник и Красная Королева, фея Динь-Динь и капитан Крюк – волшебство поджидает за каждым углом, нужно только уметь его видеть....





Файл
Формат: MKV
Качество: BDRip 720
Видео: MPEG-4 AVC, 7222 Kbit/s, 1280x536, 24.000 fps
Аудио 1: 48 kHz, AC3 Dolby Digital, 3/2 (L, C, R, l, r) + LFE ch, ~384 kbps | русский
Аудио 2: 48 kHz, AC3 Dolby Digital, 2/0 (L, R) ch, ~192 kbps | украинский
Аудио 3: 48 kHz, AC3 Dolby Digital, 3/2 (L, C, R, l, r) + LFE ch, ~640 kbps | английский
Субтитры: Русские, Английские
Дополнительно: Сохранены оригинальные чаптеры.
Релиз группы: &


Come.Away.2020.BDRip.720p.ELEKTRI4KA.UNIONGANG.mkv
Format : Matroska
Format version : Version 4 / Version 2
File size : 5.54 GiB
Duration : 1 h 33 min
Overall bit rate : 8 440 kb/s
Movie name : .ELEKTRI4KA.UNIONGANG.
Encoded date : UTC 2021-01-03 19:27:06
Writing application : mkvmerge v8.3.0 ('Over the Horizon') 64bit
Writing library : libebml v1.3.1 + libmatroska v1.4.2

Video
ID : 1
Format : AVC
Format/Info : Advanced Video Codec
Format profile : High@L4.1
Format settings, CABAC : Yes
Format settings, Reference frames : 12 frames
Codec ID : V_MPEG4/ISO/AVC
Duration : 1 h 33 min
Bit rate : 7 222 kb/s
Width : 1 280 pixels
Height : 536 pixels
Display aspect ratio : 2.40:1
Frame rate mode : Constant
Frame rate : 24.000 FPS
Color space : YUV
Chroma subsampling : 4:2:0
Bit depth : 8 bits
Scan type : Progressive
Bits/(Pixel*Frame) : 0.439
Stream size : 4.74 GiB (86%)
Title : .ELEKTRI4KA.UNIONGANG.
Writing library : x264 core 161 r3018+53 ~ Encoded by Mocunaman in Portugal
Encoding settings : cabac=1 / ref=12 / deblock=1:-3:-3 / analyse=0x3:0x113 / me=umh / subme=11 / psy=1 / fade_compensate=0.00 / psy_rd=1.00:0.00 / mixed_ref=1 / me_range=32 / chroma_me=1 / trellis=2 / 8x8dct=1 / cqm=0 / deadzone=21,11 / fast_pskip=0 / chroma_qp_offset=-2 / threads=17 / lookahead_threads=4 / sliced_threads=0 / nr=0 / decimate=0 / interlaced=0 / bluray_compat=0 / constrained_intra=0 / fgo=0 / bframes=10 / b_pyramid=2 / b_adapt=2 / b_bias=0 / direct=3 / weightb=1 / open_gop=0 / weightp=2 / keyint=250 / keyint_min=24 / scenecut=40 / intra_refresh=0 / rc_lookahead=60 / rc=crf / mbtree=0 / crf=15.6000 / qcomp=0.65 / qpmin=0:0:0 / qpmax=69:69:69 / qpstep=4 / vbv_maxrate=62500 / vbv_bufsize=78125 / crf_max=0.0 / nal_hrd=none / filler=0 / ip_ratio=1.30 / pb_ratio=1.20 / aq=3:0.85 / aq-sensitivity=10.00 / aq-factor=1.00:1.00:1.00 / aq2=0 / aq3=0 / zones=7183,7292,crf=11.8/20915,21388,crf=11.6/23641,23956,crf=11.6/32378,32442,crf=12.6/38398,38489,crf=12.6/43559,43845,crf=14.1/43950,44211,crf=14.6/45310,45462,crf=13.6/61101,62281,crf=14.1/62977,66142,crf=14.6/69622,76213,crf=14.1/95040,95851,crf=14.6/95852,96048,crf=11.6/117524,118271,crf=14.1
Language : English
Default : Yes
Forced : No
Color range : Limited
Color primaries : BT.709
Transfer characteristics : BT.709
Matrix coefficients : BT.709

Audio #1
ID : 2
Format : AC-3
Format/Info : Audio Coding 3
Mode extension : CM (complete main)
Format settings, Endianness : Big
Codec ID : A_AC3
Duration : 1 h 33 min
Bit rate mode : Constant
Bit rate : 384 kb/s
Channel(s) : 6 channels
Channel positions : Front: L C R, Side: L R, LFE
Sampling rate : 48.0 kHz
Frame rate : 31.250 FPS (1536 spf)
Bit depth : 16 bits
Compression mode : Lossy
Stream size : 258 MiB (5%)
Title : DUB (iTunes)
Language : Russian
Default : Yes
Forced : Yes

Audio #2
ID : 3
Format : AC-3
Format/Info : Audio Coding 3
Mode extension : CM (complete main)
Format settings, Endianness : Big
Codec ID : A_AC3
Duration : 1 h 33 min
Bit rate mode : Constant
Bit rate : 192 kb/s
Channel(s) : 2 channels
Channel positions : Front: L R
Sampling rate : 48.0 kHz
Frame rate : 31.250 FPS (1536 spf)
Bit depth : 16 bits
Compression mode : Lossy
Stream size : 129 MiB (2%)
Title : Dub (Cinemaker, Line)
Language : Ukrainian
Default : No
Forced : No

Audio #3
ID : 4
Format : AC-3
Format/Info : Audio Coding 3
Mode extension : CM (complete main)
Format settings, Endianness : Big
Codec ID : A_AC3
Duration : 1 h 33 min
Bit rate mode : Constant
Bit rate : 640 kb/s
Channel(s) : 6 channels
Channel positions : Front: L C R, Side: L R, LFE
Sampling rate : 48.0 kHz
Frame rate : 31.250 FPS (1536 spf)
Bit depth : 16 bits
Compression mode : Lossy
Stream size : 430 MiB (8%)
Title : Original
Language : English
Default : No
Forced : No

Text #1
ID : 5
Format : UTF-8
Codec ID : S_TEXT/UTF8
Codec ID/Info : UTF-8 Plain Text
Duration : 1 h 29 min
Bit rate : 55 b/s
Count of elements : 795
Stream size : 35.9 KiB (0%)
Title : Full
Language : Russian
Default : Yes
Forced : No

Text #2
ID : 6
Format : UTF-8
Codec ID : S_TEXT/UTF8
Codec ID/Info : UTF-8 Plain Text
Duration : 1 h 26 min
Bit rate : 36 b/s
Count of elements : 812
Stream size : 23.1 KiB (0%)
Title : English (WEB)
Language : English
Default : No
Forced : No

Text #3
ID : 7
Format : UTF-8
Codec ID : S_TEXT/UTF8
Codec ID/Info : UTF-8 Plain Text
Duration : 1 h 26 min
Bit rate : 41 b/s
Count of elements : 929
Stream size : 26.2 KiB (0%)
Title : English SDH (WEB)
Language : English
Default : No
Forced : No

Menu
00:00:00.000 : en:Chapter 01
00:12:19.208 : en:Chapter 02
00:23:21.416 : en:Chapter 03
00:34:44.750 : en:Chapter 04
00:46:40.666 : en:Chapter 05
01:00:24.208 : en:Chapter 06
01:13:51.416 : en:Chapter 07
01:27:52.000 : en:Chapter 08




У вас нет необходимых прав для просмотра вложений в этом сообщении.


Вернуться к началу
 Профиль  
Ответить с цитатой  
  • Торрент
Автор: Klingon Хэш: ---
Добавлен: 2021-01-16 21:04 Приватный: Нет (DHT включён)
Статус: Проверен
Размер: 5.54 ГБ (5 943 688 804 байт)
Изменил:
---
Скачали: 0 (Раздающих: 0%)
Причина:
---
Здоровье: 0%
Сидеров: 0 Личеров: 0
Скорость раздачи: 0 байт/сек Скорость скачивания: 0 байт/сек
Последний сидер: Нет Последний личер: Нет
Для скачивания торрента необходимо зарегистрироваться или войти на трекер.
Показать сообщения за:  Поле сортировки  
Начать новую тему Ответить на тему  [ 1 сообщение ] 

Часовой пояс: UTC + 3 часа


Кто сейчас на конференции

Сейчас этот форум просматривают: нет зарегистрированных пользователей и гости: 5


Вы не можете начинать темы
Вы не можете отвечать на сообщения
Вы не можете редактировать свои сообщения
Вы не можете удалять свои сообщения
Вы не можете добавлять вложения

Найти:
Перейти:  
Переместиться наверх
 Главная |  Список форумов |   Time : 0.110s | 15 Queries | GZIP : Off |