Часовой пояс: UTC + 3 часа




Начать новую тему Ответить на тему  [ 1 сообщение ] 
Автор Сообщение
СообщениеДобавлено: 2021-01-16 21:04 
Не в сети
Супермодератор
Супермодератор
Аватара пользователя
Раздал: 21.76 ГБ
Скачал: 0 байт
Ратио: Seed.


Зарегистрирован: 2018-11-16 11:27
Сообщения: 309
#777

Информация о фильме
Название: Клуб «Кастет»
Оригинальное название: Knuckledust
Выпущено: Великобритания, Франция
Студия: Featuristic Films, Head Gear Films, Metrol Technology
Продолжительность: 01:45:29
Озвучивание: Дублированный | iTunes
Жанр: боевик, триллер

Режиссер: Джеймс Кермак

В ролях: Оливье Рихтерс, Кейт Дики, Филип Дэвис, Эми Бэйли, Мо Данфорд, Гетин Энтони, Алекс Фернс, Джеми Уинстон, Гийом Делони, Себастьен Фукан

О фильме: Когда особым агентам полиции поручают разобраться с подпольным клубом Кастет, они сталкиваются с семью кругами ада, наполненными трупами, бойцами, убийцами и наемниками.



Файл
Формат: MKV
Качество: WEB-DL 720p | AMAZON
Видео: MPEG-4 AVC, 4246Kb/s, 1280x688, 24 fps
Аудио 1: 48 kHz, AC3 Dolby Digital, 3/2 (L, C, R, l, r) + LFE ch, ~384 kbps | русский
Аудио 2: 48 kHz, E-AC3 Dolby Digital, 3/2 (L, C, R, l, r) + LFE ch, ~192 kbps | английский
Субтитры: Russian (Full), English
Дополнительно: Нет

Релиз группы &


Klub.Kastet.2020.WEB-DL.720p.AMZN.ELEKTRI4KA.UNIONGANG.mkv
Format : Matroska
Format version : Version 4 / Version 2
File size : 3.56 GiB
Duration : 1 h 45 min
Overall bit rate : 4 825 kb/s
Movie name : .ELEKTRI4KA.UNIONGANG.
Encoded date : UTC 2021-01-03 20:15:48
Writing application : mkvmerge v8.3.0 ('Over the Horizon') 64bit
Writing library : libebml v1.3.1 + libmatroska v1.4.2

Video
ID : 1
Format : AVC
Format/Info : Advanced Video Codec
Format profile : High@L3.1
Format settings, CABAC : Yes
Format settings, Reference frames : 4 frames
Codec ID : V_MPEG4/ISO/AVC
Duration : 1 h 45 min
Bit rate mode : Constant
Bit rate : 4 246 kb/s
Nominal bit rate : 6 000 kb/s
Width : 1 280 pixels
Height : 688 pixels
Display aspect ratio : 1.85:1
Frame rate mode : Constant
Frame rate : 24.000 FPS
Color space : YUV
Chroma subsampling : 4:2:0
Bit depth : 8 bits
Scan type : Progressive
Bits/(Pixel*Frame) : 0.201
Stream size : 3.13 GiB (88%)
Title : .ELEKTRI4KA.UNIONGANG.
Default : Yes
Forced : No
Color range : Limited
Color primaries : BT.709
Transfer characteristics : BT.709
Matrix coefficients : BT.709

Audio #1
ID : 2
Format : AC-3
Format/Info : Audio Coding 3
Mode extension : CM (complete main)
Format settings, Endianness : Big
Codec ID : A_AC3
Duration : 1 h 45 min
Bit rate mode : Constant
Bit rate : 384 kb/s
Channel(s) : 6 channels
Channel positions : Front: L C R, Side: L R, LFE
Sampling rate : 48.0 kHz
Frame rate : 31.250 FPS (1536 spf)
Bit depth : 16 bits
Compression mode : Lossy
Stream size : 290 MiB (8%)
Title : DUB (itunes)
Language : Russian
Default : Yes
Forced : Yes

Audio #2
ID : 3
Format : E-AC-3
Format/Info : Enhanced Audio Coding 3
Format settings, Endianness : Big
Codec ID : A_EAC3
Duration : 1 h 45 min
Bit rate mode : Constant
Bit rate : 192 kb/s
Channel(s) : 6 channels
Channel positions : Front: L C R, Side: L R, LFE
Sampling rate : 48.0 kHz
Frame rate : 187.500 FPS (256 spf)
Compression mode : Lossy
Stream size : 145 MiB (4%)
Language : English
Default : No
Forced : No

Text #1
ID : 4
Format : UTF-8
Codec ID : S_TEXT/UTF8
Codec ID/Info : UTF-8 Plain Text
Duration : 1 h 41 min
Bit rate : 88 b/s
Count of elements : 1206
Stream size : 65.9 KiB (0%)
Title : Russian (Full)
Language : Russian
Default : No
Forced : No

Text #2
ID : 5
Format : UTF-8
Codec ID : S_TEXT/UTF8
Codec ID/Info : UTF-8 Plain Text
Duration : 1 h 43 min
Bit rate : 62 b/s
Count of elements : 1563
Stream size : 47.0 KiB (0%)
Title : SDH
Language : English
Default : No
Forced : No




У вас нет необходимых прав для просмотра вложений в этом сообщении.


Вернуться к началу
 Профиль  
Ответить с цитатой  
  • Торрент
Автор: Klingon Хэш: ---
Добавлен: 2021-01-16 21:04 Приватный: Нет (DHT включён)
Статус: Проверен
Размер: 3.56 ГБ (3 817 466 687 байт)
Изменил:
---
Скачали: 3393 (Раздающих: 0%)
Причина:
---
Здоровье: 100%
Сидеров: 136 Личеров: 7
Скорость раздачи: 0 байт/сек Скорость скачивания: 0 байт/сек
Последний сидер: 20 дней 5 часов 22 минуты 40 секунд назад Последний личер: 20 дней 5 часов 22 минуты 40 секунд назад
Для скачивания торрента необходимо зарегистрироваться или войти на трекер.
Показать сообщения за:  Поле сортировки  
Начать новую тему Ответить на тему  [ 1 сообщение ] 

Часовой пояс: UTC + 3 часа


Кто сейчас на конференции

Сейчас этот форум просматривают: нет зарегистрированных пользователей и гости: 8


Вы не можете начинать темы
Вы не можете отвечать на сообщения
Вы не можете редактировать свои сообщения
Вы не можете удалять свои сообщения
Вы не можете добавлять вложения

Найти:
Перейти:  
Переместиться наверх
 Главная |  Список форумов |   Time : 0.093s | 15 Queries | GZIP : Off |