Часовой пояс: UTC + 3 часа




Начать новую тему Ответить на тему  [ 1 сообщение ] 
Автор Сообщение
СообщениеДобавлено: 2021-01-16 21:04 
Не в сети
Супермодератор
Супермодератор
Аватара пользователя
Раздал: 21.76 ГБ
Скачал: 0 байт
Ратио: Seed.


Зарегистрирован: 2018-11-16 11:27
Сообщения: 309
#777

Информация о фильме
Название: Зеленый ад
Оригинальное название: The Green Inferno
Год выхода: 2013
Страна: США, Чили, Канада
Продолжительность: 01:40:53
Аудио 1: любительский (двухголосый, закадровый) den904&DeadSno
Аудио 2: любительский (одноголосый, закадровый) ХиХиДок
Оригинальная аудиодорожка: Английская
Жанр: ужасы, приключения

Режиссер: Элай Рот

В ролях: Лоренца Иззо, Ариэль Леви, Дэрил Сабара, Кирби Блисс Блэнтон, Магда Апанович, Скай Феррейра, Николас Мартинез, Аарон Барнс, Игнасия Алламанд, Рамон Льяо

Описание:
Группа студентов и активистов путешествует по Амазонке, их цель — спасти вымирающее племя коренных жителей сельвы. Но авиакатастрофа рушит их планы — студенты становятся заложниками племени людоедов, которое они так защищали.



Файл
Качество: BDRip 720p | CtrlHD
Видео: 1280x536 at 23.976 fps, x264@L4.1, 4144 kbps
Аудио 1: 48 kHz, 2 ch, DD 192 kbps | Russian
Аудио 2: 48 kHz, 6 ch, DD 5.1 @ 448 kbps | Russian
Аудио 3: 48 kHz, 6 ch, DD 5.1 @ 640 kbps | English
Субтитры: English (SDH)


Общее
Уникальный идентификатор : 190398172269777120930417116044733239220 (0x8F3D5AA877732062A0B9404811B8CFB4)
Полное имя : The.Green.Inferno.2013.720p.BluRay.DD5.1.x264-CtrlHD.mkv
Формат : Matroska
Версия формата : Version 4 / Version 2
Размер файла : 3,90 Гбайт
Продолжительность : 1 ч. 40 м.
Общий поток : 5534 Кбит/сек
Дата кодирования : UTC 2017-11-01 09:24:47
Программа кодирования : mkvmerge v16.0.0 ('Protest') 32-bit
Библиотека кодирования : libebml v1.3.5 + libmatroska v1.4.8
DURATION : 01:36:11.516000000
NUMBER_OF_FRAMES : 1033
NUMBER_OF_BYTES : 27328
_STATISTICS_WRITING_APP : mkvmerge v16.0.0 ('Protest') 32-bit
_STATISTICS_WRITING_DATE_UTC : 2017-11-01 09:24:47
_STATISTICS_TAGS : BPS DURATION NUMBER_OF_FRAMES NUMBER_OF_BYTES

Видео
Идентификатор : 1
Формат : AVC
Формат/Информация : Advanced Video Codec
Профиль формата : High@L4.1
Параметр CABAC формата : Да
Параметр ReFrames формата : 12 кадров
Идентификатор кодека : V_MPEG4/ISO/AVC
Продолжительность : 1 ч. 40 м.
Битрейт : 4144 Кбит/сек
Ширина : 1280 пикселей
Высота : 536 пикселей
Соотношение сторон : 2,40:1
Режим частоты кадров : Постоянный
Частота кадров : 23,976 кадра/сек
Цветовое пространство : YUV
Субдискретизация насыщенности : 4:2:0
Битовая глубина : 8 бит
Тип развёртки : Прогрессивная
Бит/(Пиксели*Кадры) : 0.252
Размер потока : 2,92 Гбайт (75%)
Библиотека кодирования : x264 core 148 r2638kMod 7599210
Настройки программы : cabac=1 / ref=12 / deblock=1:-3:-3 / analyse=0x3:0x133 / me=umh / subme=9 / psy=1 / fade_compensate=0.00 / psy_rd=1.05:0.00 / mixed_ref=1 / me_range=32 / chroma_me=1 / trellis=2 / 8x8dct=1 / cqm=0 / deadzone=21,11 / fast_pskip=0 / chroma_qp_offset=-2 / threads=6 / lookahead_threads=1 / sliced_threads=0 / nr=0 / decimate=0 / interlaced=0 / bluray_compat=0 / constrained_intra=0 / fgo=0 / bframes=8 / b_pyramid=2 / b_adapt=2 / b_bias=0 / direct=3 / weightb=1 / open_gop=0 / weightp=2 / keyint=250 / keyint_min=23 / scenecut=40 / intra_refresh=0 / rc=crf / mbtree=0 / crf=18.0000 / qcomp=0.60 / qpmin=0 / qpmax=69 / qpstep=4 / ip_ratio=1.40 / pb_ratio=1.30 / aq=3:1.10
Язык : English
Default : Да
Forced : Нет
DURATION : 01:40:54.007000000
NUMBER_OF_FRAMES : 145151
NUMBER_OF_BYTES : 3217825067
_STATISTICS_WRITING_APP : mkvmerge v16.0.0 ('Protest') 32-bit
_STATISTICS_WRITING_DATE_UTC : 2017-11-01 09:24:47
_STATISTICS_TAGS : BPS DURATION NUMBER_OF_FRAMES NUMBER_OF_BYTES

Аудио #1
Идентификатор : 2
Формат : AC-3
Формат/Информация : Audio Coding 3
Расширение режима : CM (complete main)
Параметр Endianness формата : Big
Идентификатор кодека : A_AC3
Продолжительность : 1 ч. 40 м.
Вид битрейта : Постоянный
Битрейт : 192 Кбит/сек
Каналы : 2 канала
Расположение каналов : Front: L R
Частота : 48,0 КГц
Битовая глубина : 16 бит
Метод сжатия : С потерями
Задержка видео : 13 с.
Размер потока : 139 Мбайт (3%)
Язык : Russian
Default : Да
Forced : Нет

Аудио #2
Идентификатор : 3
Формат : AC-3
Формат/Информация : Audio Coding 3
Расширение режима : CM (complete main)
Параметр Endianness формата : Big
Идентификатор кодека : A_AC3
Продолжительность : 1 ч. 40 м.
Вид битрейта : Постоянный
Битрейт : 448 Кбит/сек
Каналы : 6 каналов
Расположение каналов : Front: L C R, Side: L R, LFE
Частота : 48,0 КГц
Битовая глубина : 16 бит
Метод сжатия : С потерями
Размер потока : 323 Мбайт (8%)
Язык : Russian
Default : Нет
Forced : Нет

Аудио #3
Идентификатор : 4
Формат : AC-3
Формат/Информация : Audio Coding 3
Расширение режима : CM (complete main)
Параметр Endianness формата : Big
Идентификатор кодека : A_AC3
Продолжительность : 1 ч. 40 м.
Вид битрейта : Постоянный
Битрейт : 640 Кбит/сек
Каналы : 6 каналов
Расположение каналов : Front: L C R, Side: L R, LFE
Частота : 48,0 КГц
Битовая глубина : 16 бит
Метод сжатия : С потерями
Размер потока : 462 Мбайт (12%)
Язык : English
Default : Нет
Forced : Нет

Текст #1
Идентификатор : 5
Формат : UTF-8
Идентификатор кодека : S_TEXT/UTF8
Идентификатор кодека/Информация : UTF-8 Plain Text
Язык : English
Default : Нет
Forced : Нет

Текст #2
Идентификатор : 6
Формат : UTF-8
Идентификатор кодека : S_TEXT/UTF8
Идентификатор кодека/Информация : UTF-8 Plain Text
Заголовок : SDH
Язык : English
Default : Нет
Forced : Нет

Меню
00:00:00.000 : en:00:00:00.000
00:03:56.570 : en:00:03:56.570
00:10:43.685 : en:00:10:43.685
00:15:47.446 : en:00:15:47.446
00:20:18.050 : en:00:20:18.050
00:24:25.547 : en:00:24:25.547
00:29:20.217 : en:00:29:20.217
00:36:18.009 : en:00:36:18.009
00:39:03.841 : en:00:39:03.841
00:44:04.267 : en:00:44:04.267
00:49:14.326 : en:00:49:14.326
00:53:42.636 : en:00:53:42.636
01:01:00.949 : en:01:01:00.949
01:06:42.790 : en:01:06:42.790
01:10:49.245 : en:01:10:49.245
01:15:16.721 : en:01:15:16.721
01:21:31.845 : en:01:21:31.845
01:26:47.994 : en:01:26:47.994
01:30:22.042 : en:01:30:22.042
01:36:01.381 : en:01:36:01.381


У вас нет необходимых прав для просмотра вложений в этом сообщении.


Вернуться к началу
 Профиль  
Ответить с цитатой  
  • Торрент
Автор: Klingon Хэш: ---
Добавлен: 2021-01-16 21:04 Приватный: Нет (DHT включён)
Статус: Проверен
Размер: 3.9 ГБ (4 188 001 337 байт)
Изменил:
---
Скачали: 1277 (Раздающих: 0%)
Причина:
---
Здоровье: 100%
Сидеров: 6 Личеров: 0
Скорость раздачи: 0 байт/сек Скорость скачивания: 0 байт/сек
Последний сидер: 3 дня 13 часов 43 минуты 9 секунд назад Последний личер: Нет
Для скачивания торрента необходимо зарегистрироваться или войти на трекер.
Показать сообщения за:  Поле сортировки  
Начать новую тему Ответить на тему  [ 1 сообщение ] 

Часовой пояс: UTC + 3 часа


Кто сейчас на конференции

Сейчас этот форум просматривают: нет зарегистрированных пользователей и гости: 7


Вы не можете начинать темы
Вы не можете отвечать на сообщения
Вы не можете редактировать свои сообщения
Вы не можете удалять свои сообщения
Вы не можете добавлять вложения

Найти:
Перейти:  
Переместиться наверх
 Главная |  Список форумов |   Time : 0.099s | 15 Queries | GZIP : Off |