Часовой пояс: UTC + 3 часа




Начать новую тему Ответить на тему  [ 1 сообщение ] 
Автор Сообщение
СообщениеДобавлено: 2021-01-16 21:04 
Не в сети
Супермодератор
Супермодератор
Аватара пользователя
Раздал: 21.76 ГБ
Скачал: 0 байт
Ратио: Seed.


Зарегистрирован: 2018-11-16 11:27
Сообщения: 309
#777

Название: Автокатастрофа
Оригинальное название: Crash
Год выпуска: 1996
Страна: Канада
Продолжительность: 01:39:49
Жанр: драма

Режиссер: Дэвид Кроненберг

В ролях:
Джеймс Спэйдер, Холли Хантер, Элиас Котеас, Розанна Аркетт, Дебора Кара Ангер, Питер МакНейл, Иоланда Джулиан, Шерил Свартс, Джуда Кац, Никки Гуаданьи, Ронн Саросьяк, Бойд Бэнкс, Маркус Парило, Элис Пун, Джон Стоунхэм мл., Дэвид Кроненберг, Джордан-Патрик Маркантонио

О фильме:
Продюсер Джеймс Баллард и его жена Кэтрин - искатели эротических приключений. Есть у обоих и другая страсть - автомобили. Однажды Джеймс попадает в страшную аварию. В клинике он знакомится с жертвой этой аварии Хелен и её приятелем Воэном. Так начинается освоение Джеймсом и Кэтрин новых ощущений: сексуального возбуждения от бьющихся машин и травмированных тел... Фильм снят по мотивам одноимённого романа Джеймса Балларда (1973).



Качество: BDRip 720p
Формат: MKV
Видео: MPEG-4 AVC, 9722 Kбит/с, 1200x720, 23.976 кадр/с
Аудио 1: русский, AC3, 192 kbps, 2 ch, 48 kHz [закадровый многоголосый, PTP]
Аудио 2: русский, AC3, 384 kbps, 6 ch, 48 kHz [закадровый многоголосый, Twister]
Аудио 3: русский, AC3, 192 kbps, 2 ch, 48 kHz [авторский, Пётр Карцев]
Аудио 4: английский, DTS, 1509 kbps, 6 ch, 48 kHz [оригинал]
Субтитры 1: русские (SRT)
Субтитры 2: английские (SRT)
Главы/чаптеры
Общее
Уникальный идентификатор : 249993656014879827709458270048564994041 (0xBC1306DC88D72FF386E49FD1A5BEDFF9)
Полное имя : D:VideoАвтокатастрофа.1996.BDRip 720p msltel.mkv
Формат : Matroska
Версия формата : Version 4
Размер файла : 8,37 Гбайт
Продолжительность : 1 ч. 39 м.
Общий поток : 12,0 Мбит/сек
Название фильма : Автокатастрофа.1996.BDRip msltel
Дата кодирования : UTC 2021-01-03 13:39:17
Программа кодирования : mkvmerge v8.2.0 ('World of Adventure') 64bit
Библиотека кодирования : libebml v1.3.1 + libmatroska v1.4.2

Видео
Идентификатор : 1
Формат : AVC
Формат/Информация : Advanced Video Codec
Профиль формата : High@L4.1
Настройки формата : CABAC / 9 Ref Frames
Параметр CABAC формата : Да
Параметр RefFrames формата : 9 кадров
Идентификатор кодека : V_MPEG4/ISO/AVC
Продолжительность : 1 ч. 39 м.
Битрейт : 9 722 Кбит/сек
Ширина : 1 200 пикселей
Высота : 720 пикселей
Соотношение сторон : 5:3
Режим частоты кадров : Постоянный
Частота кадров : 23,976 (24000/1001) кадра/сек
Цветовое пространство : YUV
Субдискретизация насыщенности : 4:2:0
Битовая глубина : 8 бит
Тип развёртки : Прогрессивная
Бит/(Пиксели*Кадры) : 0.469
Размер потока : 6,78 Гбайт (81%)
Библиотека кодирования : x264 core 161 r3018 db0d417
Настройки программы : cabac=1 / ref=9 / deblock=1:-3:-3 / analyse=0x3:0x113 / me=umh / subme=10 / psy=1 / psy_rd=1.00:0.00 / mixed_ref=1 / me_range=32 / chroma_me=1 / trellis=2 / 8x8dct=1 / cqm=0 / deadzone=21,11 / fast_pskip=0 / chroma_qp_offset=-2 / threads=12 / lookahead_threads=3 / sliced_threads=0 / nr=0 / decimate=0 / interlaced=0 / bluray_compat=0 / constrained_intra=0 / bframes=13 / b_pyramid=2 / b_adapt=2 / b_bias=0 / direct=1 / weightb=1 / open_gop=0 / weightp=2 / keyint=230 / keyint_min=23 / scenecut=40 / intra_refresh=0 / rc_lookahead=40 / rc=crf / mbtree=0 / crf=19.0 / qcomp=0.60 / qpmin=0 / qpmax=69 / qpstep=4 / vbv_maxrate=62500 / vbv_bufsize=78125 / crf_max=0.0 / nal_hrd=none / filler=0 / ip_ratio=1.40 / pb_ratio=1.30 / aq=2:1.00
Язык : English
Default : Да
Forced : Нет

Аудио #1
Идентификатор : 2
Формат : AC-3
Формат/Информация : Audio Coding 3
Коммерческое название : Dolby Digital
Идентификатор кодека : A_AC3
Продолжительность : 1 ч. 39 м.
Вид битрейта : Постоянный
Битрейт : 192 Кбит/сек
Каналы : 2 канала
Channel layout : L R
Частота : 48,0 КГц
Частота кадров : 31,250 кадров/сек (1536 SPF)
Метод сжатия : С потерями
Размер потока : 137 Мбайт (2%)
Заголовок : MVO PTP
Язык : Russian
Service kind : Complete Main
Default : Да
Forced : Нет

Аудио #2
Идентификатор : 3
Формат : AC-3
Формат/Информация : Audio Coding 3
Коммерческое название : Dolby Digital
Идентификатор кодека : A_AC3
Продолжительность : 1 ч. 39 м.
Вид битрейта : Постоянный
Битрейт : 384 Кбит/сек
Каналы : 6 каналов
Channel layout : L R C LFE Ls Rs
Частота : 48,0 КГц
Частота кадров : 31,250 кадров/сек (1536 SPF)
Метод сжатия : С потерями
Размер потока : 274 Мбайт (3%)
Заголовок : MVO Twister
Язык : Russian
Service kind : Complete Main
Default : Нет
Forced : Нет

Аудио #3
Идентификатор : 4
Формат : AC-3
Формат/Информация : Audio Coding 3
Коммерческое название : Dolby Digital
Идентификатор кодека : A_AC3
Продолжительность : 1 ч. 39 м.
Вид битрейта : Постоянный
Битрейт : 192 Кбит/сек
Каналы : 2 канала
Channel layout : L R
Частота : 48,0 КГц
Частота кадров : 31,250 кадров/сек (1536 SPF)
Метод сжатия : С потерями
Размер потока : 137 Мбайт (2%)
Заголовок : Пётр Карцев
Язык : Russian
Service kind : Complete Main
Default : Нет
Forced : Нет

Аудио #4
Идентификатор : 5
Формат : DTS
Формат/Информация : Digital Theater Systems
Идентификатор кодека : A_DTS
Продолжительность : 1 ч. 39 м.
Вид битрейта : Постоянный
Битрейт : 1 509 Кбит/сек
Каналы : 6 каналов
Channel layout : C L R Ls Rs LFE
Частота : 48,0 КГц
Частота кадров : 93,750 кадра/сек (512 SPF)
Битовая глубина : 24 бит
Метод сжатия : С потерями
Размер потока : 1,05 Гбайт (13%)
Заголовок : оригинал
Язык : English
Default : Нет
Forced : Нет

Текст #1
Идентификатор : 6
Формат : UTF-8
Идентификатор кодека : S_TEXT/UTF8
Идентификатор кодека/Информация : UTF-8 Plain Text
Продолжительность : 1 ч. 35 м.
Битрейт : 36 бит/сек
Count of elements : 396
Размер потока : 25,7 Кбайт (0%)
Заголовок : русские
Язык : Russian
Default : Нет
Forced : Нет

Текст #2
Идентификатор : 7
Формат : UTF-8
Идентификатор кодека : S_TEXT/UTF8
Идентификатор кодека/Информация : UTF-8 Plain Text
Продолжительность : 1 ч. 30 м.
Битрейт : 21 бит/сек
Count of elements : 434
Размер потока : 14,1 Кбайт (0%)
Заголовок : английские
Язык : English
Default : Нет
Forced : Нет

Меню
00:00:00.000 : en:00:00:00.000
00:02:47.167 : en:00:02:47.167
00:06:46.489 : en:00:06:46.489
00:10:59.659 : en:00:10:59.659
00:16:07.967 : en:00:16:07.967
00:20:09.208 : en:00:20:09.208
00:25:22.604 : en:00:25:22.604
00:33:53.031 : en:00:33:53.031
00:36:54.212 : en:00:36:54.212
00:40:40.438 : en:00:40:40.438
00:50:50.047 : en:00:50:50.047
00:58:03.480 : en:00:58:03.480
01:04:38.875 : en:01:04:38.875
01:11:25.281 : en:01:11:25.281
01:17:03.619 : en:01:17:03.619
01:24:38.073 : en:01:24:38.073
01:30:27.422 : en:01:30:27.422
01:36:13.768 : en:01:36:13.768



У вас нет необходимых прав для просмотра вложений в этом сообщении.


Вернуться к началу
 Профиль  
Ответить с цитатой  
  • Торрент
Автор: Klingon Хэш: ---
Добавлен: 2021-01-16 21:04 Приватный: Нет (DHT включён)
Статус: Проверен
Размер: 8.37 ГБ (8 985 146 025 байт)
Изменил:
---
Скачали: 123 (Раздающих: 0%)
Причина:
---
Здоровье: 100%
Сидеров: 4 Личеров: 0
Скорость раздачи: 0 байт/сек Скорость скачивания: 0 байт/сек
Последний сидер: 14 дней 21 час 42 минуты 18 секунд назад Последний личер: Нет
Для скачивания торрента необходимо зарегистрироваться или войти на трекер.
Показать сообщения за:  Поле сортировки  
Начать новую тему Ответить на тему  [ 1 сообщение ] 

Часовой пояс: UTC + 3 часа


Кто сейчас на конференции

Сейчас этот форум просматривают: нет зарегистрированных пользователей и гости: 9


Вы не можете начинать темы
Вы не можете отвечать на сообщения
Вы не можете редактировать свои сообщения
Вы не можете удалять свои сообщения
Вы не можете добавлять вложения

Найти:
Перейти:  
Переместиться наверх
 Главная |  Список форумов |   Time : 0.093s | 17 Queries | GZIP : Off |
tracker_cron