Часовой пояс: UTC + 3 часа




Начать новую тему Ответить на тему  [ 1 сообщение ] 
Автор Сообщение
СообщениеДобавлено: 2021-01-26 22:39 
Не в сети
Аватара пользователя
Раздал: 0 байт
Скачал: 0 байт
Ратио: Inf.


Зарегистрирован: 2012-12-16 02:02
Сообщения: 107
#777
Информация о фильме
Название: Друзья на свою голову
Оригинальное название: Le bonheur des uns...
Год выхода: 2020
Жанр: комедия
Режиссер: Даниэль Коэн
В ролях: Беренис Бежо, Венсан Кассель, Франсуа Дамиенс, Флоренс Форести, Даниэль Коэн, Алис Карель, Брюно Гуэри, Биг Джон, Кэролайн Питти

О фильме: Леа и Марк, Карин и Фрэнсис – две пары закадычных друзей. Но когда скромная тихоня Лея публикует роман и он в одно мгновение становится бестселлером, отношения между семьями дают сбой. Ревность, шок, зависть: только став успешным, можно узнать, кто твой настоящий друг.



Страна: Франция
Студия: Cinéfrance Studios, SND Films, Artémis Productions
Продолжительность: 01:42:08
Озвучивание: Дублированный | iTunes

Файл
Формат: MKV
Качество: WEB-DL 720p
Видео: MPEG-4 AVC, 3960 Kbit/s, 1280x536, 24 fps
Аудио: 48 kHz, AC3 Dolby Digital, 3/2 (L, C, R, l, r) + LFE ch, ~384 kbps
Субтитры: Нет
Дополнительно: Сохранены оригинальные чаптеры.

Релиз группы: &

Druzya.na.svoyu.golovu.2020.WEB-DL.720p.ELEKTRI4KA.UNIONGANG.mkv
Format : Matroska
Format version : Version 2
File size : 3.16 GiB
Duration : 1 h 42 min
Overall bit rate : 4 432 kb/s
Encoded date : UTC 2021-01-13 09:20:47
Writing application : mkvmerge v5.8.0 ('No Sleep / Pillow') built on Sep 2 2012 15:37:04
Writing library : libebml v1.2.3 + libmatroska v1.3.0

Video
ID : 1
Format : AVC
Format/Info : Advanced Video Codec
Format profile : Main@L3.1
Format settings, CABAC : No
Format settings, Reference frames : 2 frames
Muxing mode : Header stripping
Codec ID : V_MPEG4/ISO/AVC
Duration : 1 h 42 min
Bit rate : 3 960 kb/s
Width : 1 280 pixels
Height : 536 pixels
Display aspect ratio : 2.40:1
Frame rate mode : Constant
Frame rate : 24.000 FPS
Color space : YUV
Chroma subsampling : 4:2:0
Bit depth : 8 bits
Scan type : Progressive
Bits/(Pixel*Frame) : 0.240
Stream size : 2.83 GiB (89%)
Language : French
Default : Yes
Forced : Yes
Color range : Limited
Color primaries : BT.709
Transfer characteristics : BT.709
Matrix coefficients : BT.709

Audio
ID : 2
Format : AC-3
Format/Info : Audio Coding 3
Mode extension : CM (complete main)
Format settings, Endianness : Big
Muxing mode : Header stripping
Codec ID : A_AC3
Duration : 1 h 42 min
Bit rate mode : Constant
Bit rate : 384 kb/s
Channel(s) : 6 channels
Channel positions : Front: L C R, Side: L R, LFE
Sampling rate : 48.0 kHz
Frame rate : 31.250 FPS (1536 spf)
Bit depth : 16 bits
Compression mode : Lossy
Stream size : 281 MiB (9%)
Language : Russian
Default : Yes
Forced : Yes

Menu
00:00:00.000 : ru:Глава 1
00:04:39.125 : ru:Глава 2
00:13:46.208 : ru:Глава 3
00:20:16.124 : ru:Глава 4
00:27:16.874 : ru:Глава 5
00:35:12.624 : ru:Глава 6
00:43:18.207 : ru:Глава 7
00:52:51.415 : ru:Глава 8
01:01:26.456 : ru:Глава 9
01:09:02.747 : ru:Глава 10
01:17:23.288 : ru:Глава 11
01:24:08.829 : ru:Глава 12
01:30:29.079 : ru:Глава 13
01:34:56.245 : ru:Глава 14




У вас нет необходимых прав для просмотра вложений в этом сообщении.


Вернуться к началу
 Профиль  
Ответить с цитатой  
  • Торрент
Автор: Sovetnik Хэш: ---
Добавлен: 2021-01-26 22:39 Приватный: Нет (DHT включён)
Статус: Проверен
Размер: 3.16 ГБ (3 395 276 760 байт)
Изменил:
---
Скачали: 1723 (Раздающих: 0%)
Причина:
---
Здоровье: 100%
Сидеров: 36 Личеров: 1
Скорость раздачи: 0 байт/сек Скорость скачивания: 0 байт/сек
Последний сидер: 4 дня 23 часа 32 минуты 17 секунд назад Последний личер: 4 дня 23 часа 32 минуты 17 секунд назад
Для скачивания торрента необходимо зарегистрироваться или войти на трекер.
Показать сообщения за:  Поле сортировки  
Начать новую тему Ответить на тему  [ 1 сообщение ] 

Часовой пояс: UTC + 3 часа


Кто сейчас на конференции

Сейчас этот форум просматривают: нет зарегистрированных пользователей и гости: 11


Вы не можете начинать темы
Вы не можете отвечать на сообщения
Вы не можете редактировать свои сообщения
Вы не можете удалять свои сообщения
Вы не можете добавлять вложения

Найти:
Перейти:  
Переместиться наверх
 Главная |  Список форумов |   Time : 0.096s | 17 Queries | GZIP : Off |