Часовой пояс: UTC + 3 часа




Начать новую тему Ответить на тему  [ 1 сообщение ] 
Автор Сообщение
СообщениеДобавлено: 2011-10-27 19:03 
Не в сети
Аватара пользователя
Раздал: 1.56 ТБ
Скачал: 3.69 ГБ
Ратио: 431.711


Зарегистрирован: 2011-01-16 12:39
Сообщения: 2464
Такой грубиян / So ein Flegel
#777Страна: Германия
Жанр: Комедия
Год выхода: 1934
Продолжительность: 01:17:38
Перевод: Субтитры
Cубтитры: русские
Оригинальная аудиодорожка: немецкий

Режиссер: Роберт Штеммле / Robert A. Stemmle

В ролях: Хайнц Рюманн , Эллен Франк, Инге Конради , Аннемари Сёренсен , Яклб Тидтке, Ельзе Бёттихер, Оскар Сима, Рудольф Платте

Описание: Первая экранизация повести Генриха Шпёрля "Feuerzangenbowle".
Преуспевающий драматург доктор Ганс Пфайффер ставит на сцене берлинского театра свою пьесу о школе. Чтобы собрать для неё материал, ему приходит в голову безумная идея поменятся местами со своим братом - близнецом Эрихом, уже который год протирающим штаны в выпускном классе гимназии в богом забытом городке..


Рип - lange97
Перевод - lange97
Корректировка субтитров - HPV, Sasha


Качество: DVDRip
Формат видео: AVI
Видео: 640x480 (1.33:1), 25 fps, XviD ~1238 kbps avg, 0.16 bit/pixel
Аудио: 48 kHz, MPEG Layer 3, 1 ch, ~96.00 kbps avg (нем.)
Формат субтитров: softsub (SRT)
[br][/br][/br]

Полное имя : D:\Takoj grubijan.1934.(DVDRip.XviD.Ger.).Fenixclub&Muvietroll\Takoj grubijan.1934.(DVDRip.XviD.Ger.).Fenixclub&Muvietroll.avi
Формат : AVI
Формат/Информация : Audio Video Interleave
Размер файла : 747 Мбайт
Продолжительность : 1 ч. 17 м.
Общий поток : 1344 Кбит/сек
Название фильма : Такой грубиян / So ein Flegel / (1934)
Программа кодирования : VirtualDubMod 1.5.10.2 (build 2542/release)
Примечание : Fenixclub.com & movietroll.net
Видео
Идентификатор : 0
Формат : MPEG-4 Visual
Профиль формата : Advanced Simple@L5
Параметр BVOP формата : 2
Параметр QPel формата : Нет
Параметр GMC формата : Без точки перехода
Параметр матрицы формата : Default (MPEG)
Идентификатор кодека : XVID
Идентификатор кодека/Подсказка : XviD
Продолжительность : 1 ч. 17 м.
Битрейт : 1239 Кбит/сек
Ширина : 640 пикс.
Высота : 480 пикс.
Соотношение сторон : 4:3
Частота кадров : 25,000 кадр/сек
Цветовое пространство : YUV
Подвыборка цветности : 4:2:0
Битовая глубина : 8 бит
Тип развёртки : Прогрессивная
Метод сжатия : С потерями
Бит/(Пиксели*Кадры) : 0.161
Размер потока : 688 Мбайт (92%)
Библиотека кодирования : XviD 63
Аудио
Идентификатор : 1
Формат : MPEG Audio
Версия формата : Version 1
Профиль формата : Layer 3
Идентификатор кодека : 55
Идентификатор кодека/Подсказка : MP3
Продолжительность : 1 ч. 17 м.
Вид битрейта : Постоянный
Битрейт : 96,0 Кбит/сек
Канал(ы) : 1 канал
Частота : 48,0 КГц
Метод сжатия : С потерями
Размер потока : 53,3 Мбайт (7%)
Выравнивание : Разделение по промежуткам
Продолжительность промежутка : 40 мс. (1,00 видеокадр)
Время предзагрузки промежутка : 500 ms
Общее
Полное имя : D:\Takoj grubijan.1934.(DVDRip.XviD.Ger.).Fenixclub&Muvietroll\Takoj grubijan.1934.(DVDRip.XviD.Ger.).Fenixclub&Muvietroll.srt
Формат : SubRip
Размер файла : 64,8 Кбайт
Текст
Формат : SubRip
Метод сжатия : Без потерь





Раздача мультитрекерная, при нуле сидируемых можете смело вставать на закачку!


У вас нет необходимых прав для просмотра вложений в этом сообщении.


Вернуться к началу
 Профиль  
Ответить с цитатой  
  • Торрент
Автор: qwerty90 Хэш: ---
Добавлен: 2011-10-27 19:03 Приватный: Нет (DHT включён)
Статус:
---
Размер: 746.63 МБ (782 899 977 байт)
Изменил:
---
Скачали: 0 (Раздающих: 0%)
Причина:
---
Здоровье: 0%
Сидеров: 0 Личеров: 0
Скорость раздачи: 0 байт/сек Скорость скачивания: 0 байт/сек
Последний сидер: Нет Последний личер: Нет
Для скачивания торрента необходимо зарегистрироваться или войти на трекер.
Показать сообщения за:  Поле сортировки  
Начать новую тему Ответить на тему  [ 1 сообщение ] 

Часовой пояс: UTC + 3 часа


Кто сейчас на конференции

Сейчас этот форум просматривают: нет зарегистрированных пользователей и гости: 1


Вы не можете начинать темы
Вы не можете отвечать на сообщения
Вы не можете редактировать свои сообщения
Вы не можете удалять свои сообщения
Вы не можете добавлять вложения

Найти:
Перейти:  
cron
Переместиться наверх
 Главная |  Список форумов |   Time : 0.097s | 17 Queries | GZIP : Off |
tracker_cron