Часовой пояс: UTC + 3 часа




Начать новую тему Ответить на тему  [ 1 сообщение ] 
Автор Сообщение
СообщениеДобавлено: 2012-07-16 18:13 
Не в сети
Администратор
Администратор
Аватара пользователя
Раздал: 51.58 ТБ
Скачал: 620.08 ГБ
Ратио: 85.182


Зарегистрирован: 2010-11-09 02:24
Сообщения: 44886
Откуда: Земля Санникова
Солдаты удачи / Soldiers of Fortune (2012) HDRip

#777
Русское название: Солдаты удачи
Оригинальное название: Soldiers of Fortune
Производство: США
Год выпуска: 2012
Жанр: Боевик

Описание фильма:
Миллионеры-адреналиноманы, которые уже взяли от жизни все, но хотят еще большего. Все они: банкир с Уолл-Стрит, гений видео игр, русский алюминиевый магнат, международный торговец оружием и один из основателей мобильной связи. За собственные деньги они отправляются на войну, чтобы почувствовать ее настоящий вкус и получить новую дозу адреналина. Но с самого начала все идет не так. Иллюзия игры рушится, как только миллионеры попадают на остров. При высадке их лодки тонут, а охрана — убита.

Режиссер: Максим Коростышевский
Актеры: Шон Бин, Кристиан Слэйтер, Доминик Монахэн, Винг Реймз, Джеймс Кромуэлл, Фредди Родригес, Колм Мини, Райан Доноху, Чарли Бьюли, Сара Анн Шультс

Продолжительность: 01:33:47
Перевод: Отсутствует
Язык: Немецкий



Дата мировой премьеры: 7 июня 2012
Дата российской премьеры: 19 июля 2012

Видеокодек: Xvid
Битрейт видео: ~1690 Кбит/с
Размер кадра: 720x304
Качество видео: HDRip
Аудиокодек: AC3 5.1
Битрейт аудио: 384 Кбит/с
Общее
Полное имя : C:\Justlan\Солдаты удачи\Soldaty udachi.avi
Формат : AVI
Формат/Информация : Audio Video Interleave
Размер файла : 1,36 Гбайт
Продолжительность : 1 ч. 33 м.
Общий поток : 2083 Кбит/сек
Программа кодирования : VirtualDubMod 1.5.10.2 (build 2540/release)
Библиотека кодирования : VirtualDubMod build 2540/release

Видео
Идентификатор : 0
Формат : MPEG-4 Visual
Профиль формата : Advanced Simple@L5
Параметр BVOP формата : 2
Параметр QPel формата : Нет
Параметр GMC формата : Без точки перехода
Параметр матрицы формата : Default (H.263)
Идентификатор кодека : XVID
Идентификатор кодека/Подсказка : XviD
Продолжительность : 1 ч. 33 м.
Битрейт : 1690 Кбит/сек
Ширина : 720 пикселей
Высота : 304 пикселя
Соотношение сторон : 2,35:1
Частота кадров : 23,976 кадра/сек
Цветовое пространство : YUV
Субдискретизация насыщенности : 4:2:0
Битовая глубина : 8 бит
Тип развёртки : Прогрессивная
Метод сжатия : С потерями
Бит/(Пиксели*Кадры) : 0.322
Размер потока : 1,11 Гбайт (81%)
Библиотека кодирования : XviD 64

Аудио
Идентификатор : 1
Формат : AC-3
Формат/Информация : Audio Coding 3
Расширение режима : CM (complete main)
Идентификатор кодека : 2000
Продолжительность : 1 ч. 33 м.
Вид битрейта : Постоянный
Битрейт : 384 Кбит/сек
Каналы : 6 каналов
Расположение каналов : Front: L C R, Side: L R, LFE
Частота : 48,0 КГц
Битовая глубина : 16 бит
Метод сжатия : С потерями
Размер потока : 258 Мбайт (18%)
Выравнивание : Разделение по промежуткам
Продолжительность промежутка : 42 мс. (1,00 видеокадр)
Время предзагрузки промежутка : 500 мс.
Скриншоты:


Время раздачи: Круглосуточно до 10 скачавших


У вас нет необходимых прав для просмотра вложений в этом сообщении.


Вернуться к началу
 Профиль  
Ответить с цитатой  
  • Торрент
Автор: oartemka178 Хэш: ---
Добавлен: 2012-07-16 18:13 Приватный: Нет (DHT включён)
Статус:
---
Размер: 1.36 ГБ (1 465 493 504 байт)
Изменил:
---
Скачали: 0 (Раздающих: 0%)
Причина:
---
Здоровье: 0%
Сидеров: 0 Личеров: 0
Скорость раздачи: 0 байт/сек Скорость скачивания: 0 байт/сек
Последний сидер: Нет Последний личер: Нет
Для скачивания торрента необходимо зарегистрироваться или войти на трекер.
Показать сообщения за:  Поле сортировки  
Начать новую тему Ответить на тему  [ 1 сообщение ] 

Часовой пояс: UTC + 3 часа


Кто сейчас на конференции

Сейчас этот форум просматривают: нет зарегистрированных пользователей и гости: 1


Вы не можете начинать темы
Вы не можете отвечать на сообщения
Вы не можете редактировать свои сообщения
Вы не можете удалять свои сообщения
Вы не можете добавлять вложения

Найти:
Перейти:  
Переместиться наверх
 Главная |  Список форумов |   Time : 0.082s | 15 Queries | GZIP : Off |