Часовой пояс: UTC + 3 часа




Начать новую тему Ответить на тему  [ 1 сообщение ] 
Автор Сообщение
СообщениеДобавлено: 2012-10-24 11:30 
Не в сети
Модератор
Модератор
Аватара пользователя
Раздал: 53.21 ТБ
Скачал: 0 байт
Ратио: Seed.


Зарегистрирован: 2012-06-12 14:41
Сообщения: 1515
Откуда: СССР



BBC: Индонезия: Огненный остров / BBC: Indonesia: Islands on fire




#777
Год выпуска: 1996
Страна: США
Жанр: документальный
Продолжительность: 00:49:15
Перевод: Профессиональный (одноголосый закадровый)


Режиссер: Медеа Бенжамин, Мария Луиза Мендонича


Описание: Как вулканы оказали свое влияние на животный мир, растения и все человечество.

Острова Индонезии находятся в тени самых активных вулканов мира. Окружающая среда этой страны очень динамична. Сегодня вы наблюдаете остров, а завтра его может уже не быть. Взрыв на острове Кракатау произошел в 1883 году. А спустя 50 лет произошло извержение на дне моря, что привело к образованию еще одного острова - Анак Кракатау, или Дитя Кракатау. Вулканы постоянно извергаются в этой местности, угрожая жизни людей, животным и всей среде.
Редкие виды животных и растений можно найти на изолированных островах, а некоторые из них присутствуют в этом уголке планеты. Они приспособились к своему необычному окружению и используют преимущества от обитания на вулкане. А на острове Суматра, известном своими 33 действующими вулканами, обитают самые крупные и редкие млекопитающие - орангутанг, азиатский слон, суматрийский носорог и суматрийский тигр.

Приглашаем в незабываемое и удивительное путешествие в непредсказуемый мир вулканов, который никого не оставит равнодушным!







Качество: DVDRip–AVC
Формат: MKV
Видео кодек: H.264
Аудио кодек: AC3
Видео: 720x536 (1.34:1), 25.000 fps, x264 AVC, ~1787 kbps avg, 0.186 bit/pixel
Аудио #1: 48.0 kHz, AC3 Dolby Digital, 2/0 (L,R) ch, ~192.00 kbps avg | Русский
Аудио #2: 48.0 kHz, AC3 Dolby Digital, 2/0 (L,R) ch, ~192.00 kbps avg | Английский
Субтитры: нет



Format : Matroska
File size : 765 MiB
Duration : 49mn 15s
Overall bit rate : 2 173 Kbps
Encoded date : UTC 2010-09-23 14:35:21
Writing application : mkvmerge v3.1.0 ('Happy up here') built on Jan 19 2010 12:09:24
Writing library : libebml v0.7.9 + libmatroska v0.8.1

Video
ID : 1
Format : AVC
Format/Info : Advanced Video Codec
Format profile : High@L3.1
Format settings, CABAC : Yes
Format settings, ReFrames : 8 frames
Muxing mode : Container profile=Unknown@3.1
Codec ID : V_MPEG4/ISO/AVC
Duration : 49mn 15s
Bit rate : 1 787 Kbps
Width : 720 pixels
Height : 536 pixels
Display aspect ratio : 4:3
Frame rate : 25.000 fps
Color space : YUV
Chroma subsampling : 4:2:0
Bit depth : 8 bits
Scan type : Progressive
Bits/(Pixel*Frame) : 0.185
Stream size : 615 MiB (80%)
Writing library : x264 core 79 r1342kMod e8501ef
Encoding settings : cabac=1 / ref=8 / deblock=1:-1:-1 / analyse=0x3:0x133 / me=umh / subme=7 / psy=1 / psy_rd=1.0:0.1 / mixed_ref=1 / me_range=16 / chroma_me=1 / trellis=2 / 8x8dct=1 / cqm=0 / deadzone=21,11 / chroma_qp_offset=-3 / threads=6 / nr=0 / decimate=1 / mbaff=0 / constrained_intra=0 / bframes=3 / b_pyramid=0 / b_adapt=2 / b_bias=0 / direct=3 / wpredb=1 / wpredp=2 / keyint=250 / keyint_min=25 / scenecut=40 / rc_lookahead=50 / rc=2pass / mbtree=1 / bitrate=1787 / ratetol=1.0 / qcomp=0.60 / qpmin=10 / qpmax=51 / qpstep=4 / cplxblur=20.0 / qblur=0.5 / ip_ratio=1.40 / aq=1:1.00
Language : English

Audio #1
ID : 2
Format : AC-3
Format/Info : Audio Coding 3
Mode extension : CM (complete main)
Codec ID : A_AC3
Duration : 49mn 15s
Bit rate mode : Constant
Bit rate : 192 Kbps
Channel(s) : 2 channels
Channel positions : Front: L R
Sampling rate : 48.0 KHz
Stream size : 67.6 MiB (9%)
Language : Russian

Audio #2
ID : 3
Format : AC-3
Format/Info : Audio Coding 3
Mode extension : CM (complete main)
Codec ID : A_AC3
Duration : 49mn 15s
Bit rate mode : Constant
Bit rate : 192 Kbps
Channel(s) : 2 channels
Channel positions : Front: L R
Sampling rate : 48.0 KHz
Stream size : 67.6 MiB (9%)
Language : English







У вас нет необходимых прав для просмотра вложений в этом сообщении.


Вернуться к началу
 Профиль  
Ответить с цитатой  
  • Торрент
Автор: kneht Хэш: ---
Добавлен: 2012-10-24 11:30 Приватный: Нет (DHT включён)
Статус:
---
Размер: 765.44 МБ (802 623 526 байт)
Изменил:
---
Скачали: 0 (Раздающих: 0%)
Причина:
---
Здоровье: 0%
Сидеров: 0 Личеров: 0
Скорость раздачи: 0 байт/сек Скорость скачивания: 0 байт/сек
Последний сидер: Нет Последний личер: Нет
Для скачивания торрента необходимо зарегистрироваться или войти на трекер.
Показать сообщения за:  Поле сортировки  
Начать новую тему Ответить на тему  [ 1 сообщение ] 

Часовой пояс: UTC + 3 часа


Кто сейчас на конференции

Сейчас этот форум просматривают: нет зарегистрированных пользователей и гости: 1


Вы не можете начинать темы
Вы не можете отвечать на сообщения
Вы не можете редактировать свои сообщения
Вы не можете удалять свои сообщения
Вы не можете добавлять вложения

Найти:
Перейти:  
cron
Переместиться наверх
 Главная |  Список форумов |   Time : 0.092s | 15 Queries | GZIP : Off |