Часовой пояс: UTC + 3 часа




Начать новую тему Ответить на тему  [ 1 сообщение ] 
Автор Сообщение
СообщениеДобавлено: 2012-12-28 14:20 
Не в сети
Администратор
Администратор
Аватара пользователя
Раздал: 51.58 ТБ
Скачал: 620.08 ГБ
Ратио: 85.182


Зарегистрирован: 2010-11-09 02:24
Сообщения: 44885
Откуда: Земля Санникова
[center]
[color=indigo][size=167][b]VA - 100 Hits 70's pop ( 100 Classic Tracks of the Decade ) (2009) 5CD BoxSet[/b][/size][/color]
[/center] [hr][/hr][imgright]http://i53.fastpic.ru/big/2012/1227/e1/50e5521f54ad07498f377d06c112a7e1.jpg[/imgright]
[b]Год:[/b] 2009
[b]Жанр:[/b] Pop

[b]Издатель: [/b] Demon Music Group {DMG 100 030}
[b]Страна изготовитель: [/b] UK

[b]Продолжительность:[/b] 06:02:18

[b]Кодек:[/b] FLAC
[b]Битрейт:[/b] Lossless
[b]Источник:[/b] Web

[b]Трек лист:[/b]

01. Edwin Star - War [03:20]
02. Rose Royce - Car Wash [03:19]
03. The Real Things - You To Me Are Everything [03:20]
04. Carl Douglas - Kung Fu Fighting [03:10]
05. The Osmonds - Crazy Horses [02:31]
06. Bay City Rollers - Shang-A-Lang [03:05]
07. The Rubettes - Sugar Baby Love [03:28]
08. Samantha Sang - Emotion [03:53]
09. Peaches & Herb - Reunited [03:55]
10. Graham Parker & The Rumour - Hold Back The Night [03:02] 11. Sweet Sensation - Sad Sweet Dreamer [03:22]
12. Lulu - The Man Who Sold The World [03:47]
13. Norman Greenbaum - Spirit In The Sky [03:59]
14. Stealers Wheel - Stuck In The Middle With You [03:24]
15. 10cc - I'm Not In Love [05:58]
16. Bonnie Tyler - It's A Heartache [03:29]
17. Jim Capaldi - Love Hurts [03:25]
18. Rod Stewart - Maggie May [04:57]
19. The Jam - Strange Town [03:49]
20. Sham 69 - Hersham Boys [03:25]

[b]Продолжительность:[/b] 01:12:38 [spoiler] Код:
Exact Audio Copy V1.0 beta 3 from 29. August 2011

EAC extraction logfile from 15. December 2011, 20:37

Various Artist / 100 Hits 70s Pop (CD1)

Used drive  : PIONEER DVD-RW  DVR-110D   Adapter: 0  ID: 0

Read mode               : Secure
Utilize accurate stream : Yes
Defeat audio cache      : Yes
Make use of C2 pointers : No

Read offset correction                      : 48
Overread into Lead-In and Lead-Out          : No
Fill up missing offset samples with silence : Yes
Delete leading and trailing silent blocks   : No
Null samples used in CRC calculations       : Yes
Used interface                              : Native Win32 interface for Win NT & 2000
Gap handling                                : Appended to previous track

Used output format              : User Defined Encoder
Selected bitrate                : 1024 kBit/s
Quality                         : High
Add ID3 tag                     : No
Command line compressor         : C:\Program Files\Exact Audio Copy\Flac\flac.exe
Additional command line options : -8 -V -T "ARTIST=%artist%" -T "TITLE=%title%" -T "ALBUM=%albumtitle%" -T "DATE=%year%" -T "TRACKNUMBER=%tracknr%" -T "GENRE=%genre%" -T "PERFORMER=%albuminterpret%" -T "COMPOSER=%composer%" %haslyrics%--tag-from-file=LYRICS="%lyricsfile%"%haslyrics% -T "ALBUMARTIST=%albumartist%" -T "DISCNUMBER=%cdnumber%" -T "TOTALDISCS=%totalcds%" -T "TOTALTRACKS=%numtracks%" -T "COMMENT=%comment%" %source% -o %dest%

TOC of the extracted CD

     Track |   Start  |  Length  | Start sector | End sector
    ---------------------------------------------------------
        1  |  0:00.00 |  3:19.48 |         0    |    14972
        2  |  3:19.48 |  3:19.00 |     14973    |    29897
        3  |  6:38.48 |  3:20.00 |     29898    |    44897
        4  |  9:58.48 |  3:10.12 |     44898    |    59159
        5  | 13:08.60 |  2:30.74 |     59160    |    70483
        6  | 15:39.59 |  3:04.62 |     70484    |    84345
        7  | 18:44.46 |  3:28.10 |     84346    |    99955
        8  | 22:12.56 |  3:53.01 |     99956    |   117431
        9  | 26:05.57 |  3:55.10 |    117432    |   135066
       10  | 30:00.67 |  3:01.38 |    135067    |   148679
       11  | 33:02.30 |  3:22.34 |    148680    |   163863
       12  | 36:24.64 |  3:46.62 |    163864    |   180875
       13  | 40:11.51 |  3:58.46 |    180876    |   198771
       14  | 44:10.22 |  3:24.31 |    198772    |   214102
       15  | 47:34.53 |  5:58.15 |    214103    |   240967
       16  | 53:32.68 |  3:28.41 |    240968    |   256608
       17  | 57:01.34 |  3:25.15 |    256609    |   271998
       18  | 60:26.49 |  4:57.15 |    271999    |   294288
       19  | 65:23.64 |  3:48.71 |    294289    |   311459
       20  | 69:12.60 |  3:25.31 |    311460    |   326865

Track  1

     Filename F:\2add\Various - 100 Hits - 70s Pop (CD-FLAC-Lossless) - 2009\CD1\01 - Edwin Star - War.wav

     Pre-gap length  0:00:02.00

     Peak level 99.4 %
     Extraction speed 4.3 X
     Track quality 100.0 %
     Test CRC 95757BB3
     Copy CRC 95757BB3
     Accurately ripped (confidence 4)  [2B361CAD]  (AR v2)
     Copy OK

Track  2

     Filename F:\2add\Various - 100 Hits - 70s Pop (CD-FLAC-Lossless) - 2009\CD1\02 - Rose Royce - Car Wash.wav

     Pre-gap length  0:00:01.60

     Peak level 92.1 %
     Extraction speed 4.7 X
     Track quality 100.0 %
     Test CRC 38AEF00A
     Copy CRC 38AEF00A
     Accurately ripped (confidence 4)  [6F740D5F]  (AR v2)
     Copy OK

Track  3

     Filename F:\2add\Various - 100 Hits - 70s Pop (CD-FLAC-Lossless) - 2009\CD1\03 - The Real Things - You To Me Are Everything.wav

     Pre-gap length  0:00:01.60

     Peak level 97.4 %
     Extraction speed 5.0 X
     Track quality 100.0 %
     Test CRC AFBDFC77
     Copy CRC AFBDFC77
     Accurately ripped (confidence 4)  [163B8E21]  (AR v2)
     Copy OK

Track  4

     Filename F:\2add\Various - 100 Hits - 70s Pop (CD-FLAC-Lossless) - 2009\CD1\04 - Carl Douglas - Kung Fu Fighting.wav

     Pre-gap length  0:00:01.60

     Peak level 99.4 %
     Extraction speed 4.9 X
     Track quality 100.0 %
     Test CRC EB6C0DE8
     Copy CRC EB6C0DE8
     Accurately ripped (confidence 4)  [43F8F418]  (AR v2)
     Copy OK

Track  5

     Filename F:\2add\Various - 100 Hits - 70s Pop (CD-FLAC-Lossless) - 2009\CD1\05 - The Osmonds - Crazy Horses.wav

     Pre-gap length  0:00:01.60

     Peak level 97.2 %
     Extraction speed 5.3 X
     Track quality 100.0 %
     Test CRC 6CDF5E64
     Copy CRC 6CDF5E64
     Accurately ripped (confidence 4)  [0CDDD411]  (AR v2)
     Copy OK

Track  6

     Filename F:\2add\Various - 100 Hits - 70s Pop (CD-FLAC-Lossless) - 2009\CD1\06 - Bay City Rollers - Shang-A-Lang.wav

     Pre-gap length  0:00:01.60

     Peak level 99.4 %
     Extraction speed 5.7 X
     Track quality 100.0 %
     Test CRC FAB09D2D
     Copy CRC FAB09D2D
     Accurately ripped (confidence 4)  [6292E191]  (AR v2)
     Copy OK

Track  7

     Filename F:\2add\Various - 100 Hits - 70s Pop (CD-FLAC-Lossless) - 2009\CD1\07 - The Rubettes - Sugar Baby Love.wav

     Pre-gap length  0:00:01.60

     Peak level 99.4 %
     Extraction speed 5.2 X
     Track quality 99.9 %
     Test CRC 2C01F906
     Copy CRC 2C01F906
     Accurately ripped (confidence 4)  [D4E544BF]  (AR v2)
     Copy OK

Track  8

     Filename F:\2add\Various - 100 Hits - 70s Pop (CD-FLAC-Lossless) - 2009\CD1\08 - Samantha Sang - Emotion.wav

     Pre-gap length  0:00:01.60

     Peak level 99.4 %
     Extraction speed 5.6 X
     Track quality 99.9 %
     Test CRC 5D566E85
     Copy CRC 5D566E85
     Accurately ripped (confidence 4)  [F18A23B2]  (AR v2)
     Copy OK

Track  9

     Filename F:\2add\Various - 100 Hits - 70s Pop (CD-FLAC-Lossless) - 2009\CD1\09 - Peaches & Herb - Reunited.wav

     Pre-gap length  0:00:01.60

     Peak level 99.4 %
     Extraction speed 6.6 X
     Track quality 100.0 %
     Test CRC 6C7819C6
     Copy CRC 6C7819C6
     Accurately ripped (confidence 4)  [E895AE8B]  (AR v2)
     Copy OK

Track 10

     Filename F:\2add\Various - 100 Hits - 70s Pop (CD-FLAC-Lossless) - 2009\CD1\10 - Graham Parker & The Rumour - Hold Back The Night.wav

     Pre-gap length  0:00:01.60

     Peak level 96.8 %
     Extraction speed 6.4 X
     Track quality 100.0 %
     Test CRC FB53CDB9
     Copy CRC FB53CDB9
     Accurately ripped (confidence 4)  [D77293FC]  (AR v2)
     Copy OK

Track 11

     Filename F:\2add\Various - 100 Hits - 70s Pop (CD-FLAC-Lossless) - 2009\CD1\11 - Sweet Sensation - Sad Sweet Dreamer.wav

     Pre-gap length  0:00:01.60

     Peak level 71.6 %
     Extraction speed 6.8 X
     Track quality 100.0 %
     Test CRC 44E857F0
     Copy CRC 44E857F0
     Accurately ripped (confidence 4)  [88A36BEC]  (AR v2)
     Copy OK

Track 12

     Filename F:\2add\Various - 100 Hits - 70s Pop (CD-FLAC-Lossless) - 2009\CD1\12 - Lulu - The Man Who Sold The World.wav

     Pre-gap length  0:00:01.60

     Peak level 99.4 %
     Extraction speed 7.1 X
     Track quality 100.0 %
     Test CRC FA09C3D7
     Copy CRC FA09C3D7
     Accurately ripped (confidence 4)  [49D9922E]  (AR v2)
     Copy OK

Track 13

     Filename F:\2add\Various - 100 Hits - 70s Pop (CD-FLAC-Lossless) - 2009\CD1\13 - Norman Greenbaum - Spirit In The Sky.wav

     Pre-gap length  0:00:01.60

     Peak level 99.4 %
     Extraction speed 7.4 X
     Track quality 100.0 %
     Test CRC 296339B6
     Copy CRC 296339B6
     Accurately ripped (confidence 4)  [5C21BDDA]  (AR v2)
     Copy OK

Track 14

     Filename F:\2add\Various - 100 Hits - 70s Pop (CD-FLAC-Lossless) - 2009\CD1\14 - Stealers Wheel - Stuck In The Middle With You.wav

     Pre-gap length  0:00:01.60

     Peak level 96.6 %
     Extraction speed 7.4 X
     Track quality 100.0 %
     Test CRC E3DC4A53
     Copy CRC E3DC4A53
     Accurately ripped (confidence 4)  [FAD53D08]  (AR v2)
     Copy OK

Track 15

     Filename F:\2add\Various - 100 Hits - 70s Pop (CD-FLAC-Lossless) - 2009\CD1\15 - 10cc - I'm Not In Love.wav

     Pre-gap length  0:00:01.59

     Peak level 98.4 %
     Extraction speed 7.5 X
     Track quality 99.9 %
     Test CRC 1B15B8E3
     Copy CRC 1B15B8E3
     Accurately ripped (confidence 4)  [1565C5F6]  (AR v2)
     Copy OK

Track 16

     Filename F:\2add\Various - 100 Hits - 70s Pop (CD-FLAC-Lossless) - 2009\CD1\16 - Bonnie Tyler - It's A Heartache.wav

     Pre-gap length  0:00:01.60

     Peak level 99.4 %
     Extraction speed 7.8 X
     Track quality 100.0 %
     Test CRC 3A5B49BD
     Copy CRC 3A5B49BD
     Accurately ripped (confidence 4)  [DFA4C650]  (AR v2)
     Copy OK

Track 17

     Filename F:\2add\Various - 100 Hits - 70s Pop (CD-FLAC-Lossless) - 2009\CD1\17 - Jim Capaldi - Love Hurts.wav

     Pre-gap length  0:00:01.60

     Peak level 67.6 %
     Extraction speed 7.0 X
     Track quality 99.9 %
     Test CRC A8019539
     Copy CRC A8019539
     Accurately ripped (confidence 4)  [3CDB1052]  (AR v2)
     Copy OK

Track 18

     Filename F:\2add\Various - 100 Hits - 70s Pop (CD-FLAC-Lossless) - 2009\CD1\18 - Rod Stewart - Maggie May.wav

     Pre-gap length  0:00:01.60

     Peak level 96.6 %
     Extraction speed 8.5 X
     Track quality 100.0 %
     Test CRC E74BC796
     Copy CRC E74BC796
     Accurately ripped (confidence 4)  [93026406]  (AR v2)
     Copy OK

Track 19

     Filename F:\2add\Various - 100 Hits - 70s Pop (CD-FLAC-Lossless) - 2009\CD1\19 - The Jam - Strange Town.wav

     Pre-gap length  0:00:01.60

     Peak level 99.4 %
     Extraction speed 8.4 X
     Track quality 100.0 %
     Test CRC 9FF3F74B
     Copy CRC 9FF3F74B
     Accurately ripped (confidence 4)  [F5589CDA]  (AR v2)
     Copy OK

Track 20

     Filename F:\2add\Various - 100 Hits - 70s Pop (CD-FLAC-Lossless) - 2009\CD1\20 - Sham 69 - Hersham Boys.wav

     Pre-gap length  0:00:01.60

     Peak level 84.7 %
     Extraction speed 8.4 X
     Track quality 100.0 %
     Test CRC 7604BEA8
     Copy CRC 7604BEA8
     Accurately ripped (confidence 4)  [B9064EEF]  (AR v2)
     Copy OK

All tracks accurately ripped

No errors occurred

End of status report

---- CUETools DB Plugin V2.1.3

[CTDB TOCID: CfDY6ivG1tROkFKzN5jSVWUmxJQ-] disk not present in database, Submit result: database access error: The operation has timed out

==== Log checksum D660C408653D907F8EE7C118B170BC6062A262A40B2B02532897891202C1A884 ====
Код:
-----------------------

DON'T MODIFY THIS FILE

-----------------------

PERFORMER: auCDtect Task Manager, ver. 1.5.1RC6 build 1.5.1.7
Copyright (c) 2008-2010 y-soft. All rights reserved
http://y-soft.org

ANALYZER: auCDtect: CD records authenticity detector, version 0.8.2
Copyright (c) 2004 Oleg Berngardt. All rights reserved.
Copyright (c) 2004 Alexander Djourik. All rights reserved.

FILE: 20 - Sham 69 - Hersham Boys.flac
  Size: 24052814 Hash: 89EBA0A4001ACFF7EF6893B5DEC39594 Accuracy: -m0
  Conclusion: CDDA 100%
  Signature: C9E2EE83EE8280390E3F1647D204A727AC8226C2
FILE: 19 - The Jam - Strange Town.flac
  Size: 28845691 Hash: 510FACA92575B85DAA6A4175BD8CED69 Accuracy: -m0
  Conclusion: CDDA 99%
  Signature: 9DAB5956DEBAF9F740AC846F7CAF1ACF2D5D6A05
FILE: 18 - Rod Stewart - Maggie May.flac
  Size: 34529923 Hash: 34A926CA61E90DE7C244940FEDCE50AC Accuracy: -m0
  Conclusion: CDDA 99%
  Signature: AD34B11D653308B9E93E675586DAA5185DB902F4
FILE: 17 - Jim Capaldi - Love Hurts.flac
  Size: 23701883 Hash: F6EB2A0B7BFB796002D6479C0EB6DA37 Accuracy: -m0
  Conclusion: CDDA 85%
  Signature: 00881E1B7713C6602CC782FD0C46C62C19B9786D
FILE: 16 - Bonnie Tyler - It's A Heartache.flac
  Size: 24058470 Hash: 89A626E280A5201687E7686380EDA34D Accuracy: -m0
  Conclusion: CDDA 100%
  Signature: D8F1D74931D2EFE8B04EBBDF393A6E1220B3EF2E
FILE: 15 - 10cc - I'm Not In Love.flac
  Size: 39656544 Hash: BB363CF711B8AAB294357BB9268CA3CE Accuracy: -m0
  Conclusion: CDDA 100%
  Signature: E03D3AA7469EED171BCE58A3F57ECE9E5F0D01EC
FILE: 14 - Stealers Wheel - Stuck In The Middle With You.flac
  Size: 22278961 Hash: F782E7CD66912146FA0E5CB817B4F491 Accuracy: -m0
  Conclusion: CDDA 100%
  Signature: E2C50D65269C49B2ECDB49F51FCD3CCF61EAC793
FILE: 13 - Norman Greenbaum - Spirit In The Sky.flac
  Size: 27732116 Hash: BCC76E9FD575019EEC3BF96BAA702986 Accuracy: -m0
  Conclusion: CDDA 100%
  Signature: F5A4A66E86A928E77D3C1AAEDCD7A13C3A9828B3
FILE: 12 - Lulu - The Man Who Sold The World.flac
  Size: 27667593 Hash: 052832AA19294B214A6E0993936DA56D Accuracy: -m0
  Conclusion: CDDA 99%
  Signature: 6C594AD87C054D66CF3CC8845E140A4C6E6E8176
FILE: 11 - Sweet Sensation - Sad Sweet Dreamer.flac
  Size: 21044091 Hash: C43D805A70F2A2A26F28885820D092E1 Accuracy: -m0
  Conclusion: CDDA 100%
  Signature: 00B8E1B67646C438119847BE3C84B80BF5402E7F
FILE: 10 - Graham Parker & The Rumour - Hold Back The Night.flac
  Size: 20980146 Hash: C79C23DD5B5107C5A6A3234187D4FBB3 Accuracy: -m0
  Conclusion: CDDA 100%
  Signature: 1AE2F57564B63264C2CB933AAC44F3E239FE0765
FILE: 09 - Peaches & Herb - Reunited.flac
  Size: 24768517 Hash: 1CCB709FC8BC492C25E2082D1C2B5A67 Accuracy: -m0
  Conclusion: CDDA 100%
  Signature: 63950456C29548DEAD9AB9EE2A97D075461C0719
FILE: 08 - Samantha Sang - Emotion.flac
  Size: 25876173 Hash: C1F7F079FEA0BB38AF3055CB9412882D Accuracy: -m0
  Conclusion: CDDA 99%
  Signature: 3DEE9376BAA540AEA5B66F0D6B1E2550E2A3C1E3
FILE: 07 - The Rubettes - Sugar Baby Love.flac
  Size: 24687902 Hash: 02D511F285504CD801E3FEC80D1EB3A4 Accuracy: -m0
  Conclusion: CDDA 100%
  Signature: 5D605D71A10D5F8D8AC451E130FEB88CCA665915
FILE: 06 - Bay City Rollers - Shang-A-Lang.flac
  Size: 21685218 Hash: D19BCC05D852E2DBEF2DB994B705A1D1 Accuracy: -m0
  Conclusion: CDDA 100%
  Signature: EF6FF6FECC7089C42AD69F3767DA39FB343A4C3A
FILE: 05 - The Osmonds - Crazy Horses.flac
  Size: 17218562 Hash: 46CB056B5C429A064A9DDA6A1CD4EB66 Accuracy: -m0
  Conclusion: CDDA 100%
  Signature: 2D98B16C6FE355895261D723414287DA993A280E
FILE: 04 - Carl Douglas - Kung Fu Fighting.flac
  Size: 23383423 Hash: 01975CC310DE54E9BAC753904521E08B Accuracy: -m0
  Conclusion: CDDA 99%
  Signature: 15ACAC5EBE9C93FFCBB2D0A5DB13047B3F483AA4
FILE: 03 - The Real Things - You To Me Are Everything.flac
  Size: 23027115 Hash: 260E0A5537D65C9E5C6CA34A88C67767 Accuracy: -m0
  Conclusion: CDDA 100%
  Signature: 81FAB26ECE8A89F3FF81930DD61FB0971B42EC8A
FILE: 02 - Rose Royce - Car Wash.flac
  Size: 22628164 Hash: DFDDA710424C6ECA4B63477ECC0005AD Accuracy: -m0
  Conclusion: CDDA 100%
  Signature: 076AEFEA20C899BE3A5A2B0DD6B31C8B2AF07DCC
FILE: 01 - Edwin Star - War.flac
  Size: 24906345 Hash: 53955CED040DA39974D783F40592699B Accuracy: -m0
  Conclusion: CDDA 100%
  Signature: 6C8D1D35596060D3C05E774E247BF12D0D26B242[/spoiler]
[b]Трек лист:[/b]

01. Gloria Gaynor - I Will Survive [03:18]
02. Anita Ward - Ring My Bell [04:29]
03. Amii Stewart - Knock on Wood [03:45]
04. Van McCoy & The Soul City Symphony - The Hustle [04:04]
05. Gary's Gang - Keep on Dancing [03:34]
06. Frantique - Strut Your Funky Stuff [03:37]
07. Michael Zager Band - Let's All Chant [04:11]
08. Cerrone - Supernature [04:24]
09. McFadden & Whitehead - Ain't No Stopping Us Now [03:36]
10. Kool & The Gang - Ladies Night [03:25]
11. Donna Summer - Love's Unkind [04:28]
12. Edwin Starr - Contact [03:32]
13. Chairmen of the Board - Give Me Just a Little More Time [02:40]
14. Freda Payne - Band of Gold [02:53]
15. The Floaters - Float On [04:10]
16. The Drifters - You're More Than a Number in My Little Red Book [03:16]
17. Average White Band - Pick Up the Pieces [03:59]
18. Detroit Emeralds - Feel the Need in Me [03:41]
19. Shalamar - Take That to the Bank [03:22]
20. 5000 Volts - I'm on Fire [02:48]

[b]Продолжительность:[/b] 01:13:12 [spoiler] Код:
Exact Audio Copy V1.0 beta 3 from 29. August 2011

EAC extraction logfile from 15. December 2011, 21:13

Various / 100 Hits 70s Pop (CD2)

Used drive  : PIONEER DVD-RW  DVR-110D   Adapter: 0  ID: 0

Read mode               : Secure
Utilize accurate stream : Yes
Defeat audio cache      : Yes
Make use of C2 pointers : No

Read offset correction                      : 48
Overread into Lead-In and Lead-Out          : No
Fill up missing offset samples with silence : Yes
Delete leading and trailing silent blocks   : No
Null samples used in CRC calculations       : Yes
Used interface                              : Native Win32 interface for Win NT & 2000
Gap handling                                : Appended to previous track

Used output format              : User Defined Encoder
Selected bitrate                : 1024 kBit/s
Quality                         : High
Add ID3 tag                     : No
Command line compressor         : C:\Program Files\Exact Audio Copy\Flac\flac.exe
Additional command line options : -8 -V -T "ARTIST=%artist%" -T "TITLE=%title%" -T "ALBUM=%albumtitle%" -T "DATE=%year%" -T "TRACKNUMBER=%tracknr%" -T "GENRE=%genre%" -T "PERFORMER=%albuminterpret%" -T "COMPOSER=%composer%" %haslyrics%--tag-from-file=LYRICS="%lyricsfile%"%haslyrics% -T "ALBUMARTIST=%albumartist%" -T "DISCNUMBER=%cdnumber%" -T "TOTALDISCS=%totalcds%" -T "TOTALTRACKS=%numtracks%" -T "COMMENT=%comment%" %source% -o %dest%

TOC of the extracted CD

     Track |   Start  |  Length  | Start sector | End sector
    ---------------------------------------------------------
        1  |  0:00.00 |  3:17.41 |         0    |    14815
        2  |  3:17.41 |  4:29.33 |     14816    |    35023
        3  |  7:46.74 |  3:44.55 |     35024    |    51878
        4  | 11:31.54 |  4:03.57 |     51879    |    70160
        5  | 15:35.36 |  3:34.13 |     70161    |    86223
        6  | 19:09.49 |  3:37.29 |     86224    |   102527
        7  | 22:47.03 |  4:11.30 |    102528    |   121382
        8  | 26:58.33 |  4:23.53 |    121383    |   141160
        9  | 31:22.11 |  3:36.03 |    141161    |   157363
       10  | 34:58.14 |  3:24.74 |    157364    |   172737
       11  | 38:23.13 |  4:28.04 |    172738    |   192841
       12  | 42:51.17 |  3:31.64 |    192842    |   208730
       13  | 46:23.06 |  2:40.18 |    208731    |   220748
       14  | 49:03.24 |  2:53.07 |    220749    |   233730
       15  | 51:56.31 |  4:10.15 |    233731    |   252495
       16  | 56:06.46 |  3:15.51 |    252496    |   267171
       17  | 59:22.22 |  3:59.15 |    267172    |   285111
       18  | 63:21.37 |  3:40.49 |    285112    |   301660
       19  | 67:02.11 |  3:22.00 |    301661    |   316810
       20  | 70:24.11 |  2:48.14 |    316811    |   329424

Track  1

     Filename F:\2add\Various - 100 Hits - 70s Pop (CD-FLAC-Lossless) - 2009\CD2\01 - Gloria Gaynor - I Will Survive.wav

     Pre-gap length  0:00:02.00

     Peak level 96.9 %
     Extraction speed 3.8 X
     Track quality 99.9 %
     Test CRC A0A9CAE3
     Copy CRC A0A9CAE3
     Accurately ripped (confidence 3)  [09C6E595]  (AR v2)
     Copy OK

Track  2

     Filename F:\2add\Various - 100 Hits - 70s Pop (CD-FLAC-Lossless) - 2009\CD2\02 - Anita Ward - Ring My Bell.wav

     Pre-gap length  0:00:01.60

     Peak level 86.5 %
     Extraction speed 5.0 X
     Track quality 100.0 %
     Test CRC 8821E81C
     Copy CRC 8821E81C
     Accurately ripped (confidence 3)  [48A3278C]  (AR v2)
     Copy OK

Track  3

     Filename F:\2add\Various - 100 Hits - 70s Pop (CD-FLAC-Lossless) - 2009\CD2\03 - Amii Stewart - Knock on Wood.wav

     Pre-gap length  0:00:01.60

     Peak level 99.4 %
     Extraction speed 4.6 X
     Track quality 99.9 %
     Test CRC 5C2E5856
     Copy CRC 5C2E5856
     Accurately ripped (confidence 3)  [24F891E8]  (AR v2)
     Copy OK

Track  4

     Filename F:\2add\Various - 100 Hits - 70s Pop (CD-FLAC-Lossless) - 2009\CD2\04 - Van McCoy & The Soul City Symphony - The Hustle.wav

     Pre-gap length  0:00:01.60

     Peak level 66.1 %
     Extraction speed 5.6 X
     Track quality 100.0 %
     Test CRC 229C2543
     Copy CRC 229C2543
     Accurately ripped (confidence 3)  [0D23A8B3]  (AR v2)
     Copy OK

Track  5

     Filename F:\2add\Various - 100 Hits - 70s Pop (CD-FLAC-Lossless) - 2009\CD2\05 - Gary's Gang - Keep on Dancing.wav

     Pre-gap length  0:00:01.60

     Peak level 99.4 %
     Extraction speed 5.8 X
     Track quality 100.0 %
     Test CRC D7EC4D60
     Copy CRC D7EC4D60
     Accurately ripped (confidence 3)  [1177AB55]  (AR v2)
     Copy OK

Track  6

     Filename F:\2add\Various - 100 Hits - 70s Pop (CD-FLAC-Lossless) - 2009\CD2\06 - Frantique - Strut Your Funky Stuff.wav

     Pre-gap length  0:00:01.60

     Peak level 68.4 %
     Extraction speed 5.8 X
     Track quality 100.0 %
     Test CRC A412C022
     Copy CRC A412C022
     Accurately ripped (confidence 3)  [F73279A6]  (AR v2)
     Copy OK

Track  7

     Filename F:\2add\Various - 100 Hits - 70s Pop (CD-FLAC-Lossless) - 2009\CD2\07 - Michael Zager Band - Let's All Chant.wav

     Pre-gap length  0:00:01.60

     Peak level 99.4 %
     Extraction speed 6.5 X
     Track quality 100.0 %
     Test CRC CB4C416F
     Copy CRC CB4C416F
     Accurately ripped (confidence 3)  [E29933E6]  (AR v2)
     Copy OK

Track  8

     Filename F:\2add\Various - 100 Hits - 70s Pop (CD-FLAC-Lossless) - 2009\CD2\08 - Cerrone - Supernature.wav

     Pre-gap length  0:00:01.60

     Peak level 99.4 %
     Extraction speed 4.4 X
     Track quality 100.0 %
     Test CRC 3604C600
     Copy CRC 3604C600
     Accurately ripped (confidence 3)  [8CDCE461]  (AR v2)
     Copy OK

Track  9

     Filename F:\2add\Various - 100 Hits - 70s Pop (CD-FLAC-Lossless) - 2009\CD2\09 - McFadden & Whitehead - Ain't No Stopping Us Now.wav

     Pre-gap length  0:00:01.60

     Peak level 75.8 %
     Extraction speed 6.6 X
     Track quality 100.0 %
     Test CRC 4EFC4DBA
     Copy CRC 4EFC4DBA
     Accurately ripped (confidence 3)  [242F1437]  (AR v2)
     Copy OK

Track 10

     Filename F:\2add\Various - 100 Hits - 70s Pop (CD-FLAC-Lossless) - 2009\CD2\10 - Kool & The Gang - Ladies Night.wav

     Pre-gap length  0:00:01.60

     Peak level 92.9 %
     Extraction speed 6.2 X
     Track quality 100.0 %
     Test CRC 8739D613
     Copy CRC 8739D613
     Accurately ripped (confidence 3)  [4C173BBC]  (AR v2)
     Copy OK

Track 11

     Filename F:\2add\Various - 100 Hits - 70s Pop (CD-FLAC-Lossless) - 2009\CD2\11 - Donna Summer - Love's Unkind.wav

     Pre-gap length  0:00:01.60

     Peak level 99.4 %
     Extraction speed 6.3 X
     Track quality 100.0 %
     Test CRC 61A960B6
     Copy CRC 61A960B6
     Accurately ripped (confidence 3)  [353BB459]  (AR v2)
     Copy OK

Track 12

     Filename F:\2add\Various - 100 Hits - 70s Pop (CD-FLAC-Lossless) - 2009\CD2\12 - Edwin Starr - Contact.wav

     Pre-gap length  0:00:01.60

     Peak level 94.4 %
     Extraction speed 7.3 X
     Track quality 100.0 %
     Test CRC 3614D00E
     Copy CRC 3614D00E
     Accurately ripped (confidence 3)  [E751ECA3]  (AR v2)
     Copy OK

Track 13

     Filename F:\2add\Various - 100 Hits - 70s Pop (CD-FLAC-Lossless) - 2009\CD2\13 - Chairmen of the Board - Give Me Just a Little More Time.wav

     Pre-gap length  0:00:01.60

     Peak level 76.1 %
     Extraction speed 7.1 X
     Track quality 100.0 %
     Test CRC 99B48796
     Copy CRC 99B48796
     Accurately ripped (confidence 3)  [9B11A7A6]  (AR v2)
     Copy OK

Track 14

     Filename F:\2add\Various - 100 Hits - 70s Pop (CD-FLAC-Lossless) - 2009\CD2\14 - Freda Payne - Band of Gold.wav

     Pre-gap length  0:00:01.60

     Peak level 99.4 %
     Extraction speed 7.4 X
     Track quality 100.0 %
     Test CRC 2EB2A232
     Copy CRC 2EB2A232
     Accurately ripped (confidence 3)  [5838EE49]  (AR v2)
     Copy OK

Track 15

     Filename F:\2add\Various - 100 Hits - 70s Pop (CD-FLAC-Lossless) - 2009\CD2\15 - The Floaters - Float On.wav

     Pre-gap length  0:00:01.60

     Peak level 96.6 %
     Extraction speed 8.0 X
     Track quality 100.0 %
     Test CRC DA85C2BC
     Copy CRC DA85C2BC
     Accurately ripped (confidence 3)  [92DA75D8]  (AR v2)
     Copy OK

Track 16

     Filename F:\2add\Various - 100 Hits - 70s Pop (CD-FLAC-Lossless) - 2009\CD2\16 - The Drifters - You're More Than a Number in My Little Red Book.wav

     Pre-gap length  0:00:01.60

     Peak level 87.0 %
     Extraction speed 7.8 X
     Track quality 100.0 %
     Test CRC 6644BB77
     Copy CRC 6644BB77
     Accurately ripped (confidence 3)  [9D1B8AAB]  (AR v2)
     Copy OK

Track 17

     Filename F:\2add\Various - 100 Hits - 70s Pop (CD-FLAC-Lossless) - 2009\CD2\17 - Average White Band - Pick Up the Pieces.wav

     Pre-gap length  0:00:01.60

     Peak level 97.0 %
     Extraction speed 8.3 X
     Track quality 100.0 %
     Test CRC 7ECDCFE6
     Copy CRC 7ECDCFE6
     Accurately ripped (confidence 3)  [89DFFDD8]  (AR v2)
     Copy OK

Track 18

     Filename F:\2add\Various - 100 Hits - 70s Pop (CD-FLAC-Lossless) - 2009\CD2\18 - Detroit Emeralds - Feel the Need in Me.wav

     Pre-gap length  0:00:01.60

     Peak level 98.2 %
     Extraction speed 8.3 X
     Track quality 100.0 %
     Test CRC 34691E40
     Copy CRC 34691E40
     Accurately ripped (confidence 3)  [F6511A42]  (AR v2)
     Copy OK

Track 19

     Filename F:\2add\Various - 100 Hits - 70s Pop (CD-FLAC-Lossless) - 2009\CD2\19 - Shalamar - Take That to the Bank.wav

     Pre-gap length  0:00:01.60

     Peak level 82.6 %
     Extraction speed 8.4 X
     Track quality 100.0 %
     Test CRC B5E41B6E
     Copy CRC B5E41B6E
     Accurately ripped (confidence 3)  [192F4949]  (AR v2)
     Copy OK

Track 20

     Filename F:\2add\Various - 100 Hits - 70s Pop (CD-FLAC-Lossless) - 2009\CD2\20 - 5000 Volts - I'm on Fire.wav

     Pre-gap length  0:00:01.60

     Peak level 99.4 %
     Extraction speed 8.2 X
     Track quality 100.0 %
     Test CRC 64A14C0F
     Copy CRC 64A14C0F
     Accurately ripped (confidence 3)  [486F7B39]  (AR v2)
     Copy OK

All tracks accurately ripped

No errors occurred

End of status report

---- CUETools DB Plugin V2.1.3

[CTDB TOCID: aTIU.NhUtREN.XWW.caAvvyrUC4-] disk not present in database, Submit result: aTIU.NhUtREN.XWW.caAvvyrUC4- has been uploaded

==== Log checksum D2FAB9BD162B959C53EBF2917F34E78885BB740E41F95F0AA6B828048E767A6A ====
Код:
-----------------------

DON'T MODIFY THIS FILE

-----------------------

PERFORMER: auCDtect Task Manager, ver. 1.5.1RC6 build 1.5.1.7
Copyright (c) 2008-2010 y-soft. All rights reserved
http://y-soft.org

ANALYZER: auCDtect: CD records authenticity detector, version 0.8.2
Copyright (c) 2004 Oleg Berngardt. All rights reserved.
Copyright (c) 2004 Alexander Djourik. All rights reserved.

FILE: 20 - 5000 Volts - I'm on Fire.flac
  Size: 20932790 Hash: 5F2EA3EA607DFDFF1DBD9E07963DDE2C Accuracy: -m0
  Conclusion: MPEG 79%
  Signature: 2650B47CDFDCFF9097CCFC0F756D2570E6DEF506
FILE: 19 - Shalamar - Take That to the Bank.flac
  Size: 22680216 Hash: F57C7CE2216A7B9CEE89B48C278C8579 Accuracy: -m0
  Conclusion: CDDA 100%
  Signature: 00E1DC9B005A9D9F38F184AB6F61AFE75E9504AD
FILE: 18 - Detroit Emeralds - Feel the Need in Me.flac
  Size: 24431217 Hash: 29D16D6CB92F8265DE7C5121BDF0A7A6 Accuracy: -m0
  Conclusion: CDDA 100%
  Signature: 7121D0537EE6C6E86D30352F230483742D8D56E3
FILE: 17 - Average White Band - Pick Up the Pieces.flac
  Size: 29077500 Hash: BED8D3902EB7FC98917FC411E67A911B Accuracy: -m0
  Conclusion: CDDA 100%
  Signature: 6E7874ACC1896B5C8420EF21F1E8044F10E39EA5
FILE: 16 - The Drifters - You're More Than a Number in My Little Red Book.flac
  Size: 21697508 Hash: 36E3FE25D299BA7D57F69FE3E5734E43 Accuracy: -m0
  Conclusion: CDDA 100%
  Signature: E58189D37DFF02F0BC346623FF08B26B4F17721B
FILE: 15 - The Floaters - Float On.flac
  Size: 27460946 Hash: 13FB2B72CBA615EC1C9AC53C6FB42A27 Accuracy: -m0
  Conclusion: CDDA 100%
  Signature: 16728AC0F77884202E7F93B543F9ED249BD57569
FILE: 14 - Freda Payne - Band of Gold.flac
  Size: 22419980 Hash: DA9E8584EBA52A178D3E960E1BE04197 Accuracy: -m0
  Conclusion: CDDA 100%
  Signature: 988C1A48E4AF52B34643208EF17242C97BB15FDE
FILE: 13 - Chairmen of the Board - Give Me Just a Little More Time.flac
  Size: 17591295 Hash: 200D2A611CB7B26636A2F58C6811A54E Accuracy: -m0
  Conclusion: CDDA 100%
  Signature: A5FC4F1D7381AE1200DFE61890B30F85FB269909
FILE: 12 - Edwin Starr - Contact.flac
  Size: 26543175 Hash: 47EA7565AFC939CD9897EE7310B348CE Accuracy: -m0
  Conclusion: CDDA 100%
  Signature: 9D54EA9BF2963A811E257E339EFF4C235E8B2F6E
FILE: 11 - Donna Summer - Love's Unkind.flac
  Size: 35020567 Hash: 566EA2F8D2A193F936A9FE36EFADCF49 Accuracy: -m0
  Conclusion: CDDA 100%
  Signature: 3FAAF69C95782F123D1C553329EE643549A420B4
FILE: 10 - Kool & The Gang - Ladies Night.flac
  Size: 24623647 Hash: 4EC21AA34C6053B6FDBDC82450F5C5F9 Accuracy: -m0
  Conclusion: MPEG 95%
  Signature: B169F357112B76505E9202DBB4A89DE2A5692547
FILE: 09 - McFadden & Whitehead - Ain't No Stopping Us Now.flac
  Size: 25009131 Hash: 1AA3EA3E967A34919F7F9F8D90324572 Accuracy: -m0
  Conclusion: CDDA 100%
  Signature: 8961B56562665FF2C85A6E5EB9D91A7530B1B219
FILE: 08 - Cerrone - Supernature.flac
  Size: 33022463 Hash: C80A8AF614F05BA554D0DC80F1BCF0F8 Accuracy: -m0
  Conclusion: CDDA 100%
  Signature: 87BB0C1C77DAE0AEA811C1B81067823960D2640D
FILE: 07 - Michael Zager Band - Let's All Chant.flac
  Size: 30197333 Hash: E4435662603649E1FD5C40D3FB47A7F1 Accuracy: -m0
  Conclusion: CDDA 100%
  Signature: 03C103798C58E652D375B8BCCD3692020CFB0D15
FILE: 06 - Frantique - Strut Your Funky Stuff.flac
  Size: 27570931 Hash: 0530C9E1D0E7DF65D781D52EF3646C50 Accuracy: -m0
  Conclusion: CDDA 100%
  Signature: 3E268A586A7538316AEF04284034F06F22DBEC48
FILE: 05 - Gary's Gang - Keep on Dancing.flac
  Size: 25523641 Hash: BC2D1E94E14A56BDA71A04015A359701 Accuracy: -m0
  Conclusion: MPEG 95%
  Signature: B263EF52DA4F93108E1B7DE101AD380E300DA8CC
FILE: 04 - Van McCoy & The Soul City Symphony - The Hustle.flac
  Size: 28356402 Hash: F561E13C63352946A745DF1EA71DCA8B Accuracy: -m0
  Conclusion: CDDA 100%
  Signature: D8A3F9D5CFD5E696914A4F6631933B566929B010
FILE: 03 - Amii Stewart - Knock on Wood.flac
  Size: 28028588 Hash: 341731A22A8C58F585C1FCE93F83BFDC Accuracy: -m0
  Conclusion: CDDA 100%
  Signature: D1CFC777D2752F2FDF98EA38166F73E8BA13F137
FILE: 02 - Anita Ward - Ring My Bell.flac
  Size: 30369781 Hash: 13410F175F815F232ACB9C3771142B30 Accuracy: -m0
  Conclusion: CDDA 99%
  Signature: 7B3F80BAB11168C657147AFB3B395D38D277A56A
FILE: 01 - Gloria Gaynor - I Will Survive.flac
  Size: 24390236 Hash: 04D186685ECAA7F7A664035982DD1E99 Accuracy: -m0
  Conclusion: CDDA 100%
  Signature: EE65F043A6D28F2FA9A3B385ED472142244A03BD[/spoiler]
[spoiler] [spoiler="Спектрограммы"][img]http://img507.imageshack.us/img507/7318/sgangkeepondancingflacs.jpg[/img] [img]http://img217.imageshack.us/img217/51/10koolthegangladiesnigh.jpg[/img] [img]http://img844.imageshack.us/img844/1385/monfireflacspectrogram.jpg[/img] [/spoiler] [/spoiler] [b]Трек лист:[/b]

01. The Jam - The Eton Rifles [04:00]
02. Squeeze - Up The Junction [03:05]
03. Sham 69 - If The Kids Are United [03:44]
04. Jilted John - Jilted John [02:53]
05. Plastic Bertrand - Ca Plane Pour Moi [02:58]
06. The Dickies - Banana Splits [01:55]
07. Jonathan Richman & The Modern Lovers - Roadrunner [04:05]
08. Ian Dury & The Blockheads - What A Waste [03:25]
09. Eddie & The Hot Rods - Do Anything You Wanna Do [04:03]
10. Joe Jackson - Is She Really Going Out With Him? [03:38]
11. The Jags - Back Of My Hand [03:21]
12. John Miles - Music [05:52]
13. Slik - Forever And Ever [03:38]
14. 10cc - The Things We Do For Love [03:28]
15. Jimmy Cliff - Wild World [03:52]
16. Third World - Now That We've Found Love [07:31]
17. Rod Stewart - You Wear It Well [04:16]
18. Free - All Right Now [04:12]
19. T. Rex - Solid Gold Easy Action [02:20]
20. Lynyrd Skynyrd - Free Bird [06:15]

[b]Продолжительность:[/b] 01:18:31 [spoiler]Код:
Exact Audio Copy V1.0 beta 3 from 29. August 2011

EAC extraction logfile from 15. December 2011, 22:04

Various / 100 Hits 70s Pop (CD3)

Used drive  : PIONEER DVD-RW  DVR-110D   Adapter: 0  ID: 0

Read mode               : Secure
Utilize accurate stream : Yes
Defeat audio cache      : Yes
Make use of C2 pointers : No

Read offset correction                      : 48
Overread into Lead-In and Lead-Out          : No
Fill up missing offset samples with silence : Yes
Delete leading and trailing silent blocks   : No
Null samples used in CRC calculations       : Yes
Used interface                              : Native Win32 interface for Win NT & 2000
Gap handling                                : Appended to previous track

Used output format              : User Defined Encoder
Selected bitrate                : 1024 kBit/s
Quality                         : High
Add ID3 tag                     : No
Command line compressor         : C:\Program Files\Exact Audio Copy\Flac\flac.exe
Additional command line options : -8 -V -T "ARTIST=%artist%" -T "TITLE=%title%" -T "ALBUM=%albumtitle%" -T "DATE=%year%" -T "TRACKNUMBER=%tracknr%" -T "GENRE=%genre%" -T "PERFORMER=%albuminterpret%" -T "COMPOSER=%composer%" %haslyrics%--tag-from-file=LYRICS="%lyricsfile%"%haslyrics% -T "ALBUMARTIST=%albumartist%" -T "DISCNUMBER=%cdnumber%" -T "TOTALDISCS=%totalcds%" -T "TOTALTRACKS=%numtracks%" -T "COMMENT=%comment%" %source% -o %dest%

TOC of the extracted CD

     Track |   Start  |  Length  | Start sector | End sector
    ---------------------------------------------------------
        1  |  0:00.00 |  3:59.43 |         0    |    17967
        2  |  3:59.43 |  3:05.30 |     17968    |    31872
        3  |  7:04.73 |  3:44.33 |     31873    |    48705
        4  | 10:49.31 |  2:53.28 |     48706    |    61708
        5  | 13:42.59 |  2:57.49 |     61709    |    75032
        6  | 16:40.33 |  1:54.44 |     75033    |    83626
        7  | 18:35.02 |  4:05.17 |     83627    |   102018
        8  | 22:40.19 |  3:24.52 |    102019    |   117370
        9  | 26:04.71 |  4:03.25 |    117371    |   135620
       10  | 30:08.21 |  3:38.24 |    135621    |   151994
       11  | 33:46.45 |  3:21.01 |    151995    |   167070
       12  | 37:07.46 |  5:52.31 |    167071    |   193501
       13  | 43:00.02 |  3:37.61 |    193502    |   209837
       14  | 46:37.63 |  3:28.21 |    209838    |   225458
       15  | 50:06.09 |  3:52.31 |    225459    |   242889
       16  | 53:58.40 |  7:30.66 |    242890    |   276705
       17  | 61:29.31 |  4:15.58 |    276706    |   295888
       18  | 65:45.14 |  4:11.69 |    295889    |   314782
       19  | 69:57.08 |  2:19.70 |    314783    |   325277
       20  | 72:17.03 |  6:14.54 |    325278    |   353381

Track  1

     Filename F:\2add\Various - 100 Hits - 70s Pop (CD-FLAC-Lossless) - 2009\CD3\01 - The Jam - The Eton Rifles.wav

     Pre-gap length  0:00:02.00

     Peak level 99.4 %
     Extraction speed 4.3 X
     Track quality 100.0 %
     Test CRC D587868E
     Copy CRC D587868E
     Accurately ripped (confidence 3)  [E90764C2]  (AR v2)
     Copy OK

Track  2

     Filename F:\2add\Various - 100 Hits - 70s Pop (CD-FLAC-Lossless) - 2009\CD3\02 - Squeeze - Up The Junction.wav

     Pre-gap length  0:00:01.60

     Peak level 85.1 %
     Extraction speed 4.3 X
     Track quality 100.0 %
     Test CRC 2EF2B09C
     Copy CRC 2EF2B09C
     Accurately ripped (confidence 3)  [D5A3C37D]  (AR v2)
     Copy OK

Track  3

     Filename F:\2add\Various - 100 Hits - 70s Pop (CD-FLAC-Lossless) - 2009\CD3\03 - Sham 69 - If The Kids Are United.wav

     Pre-gap length  0:00:01.60

     Peak level 97.7 %
     Extraction speed 3.3 X
     Track quality 99.9 %
     Test CRC 42B9A35D
     Copy CRC 42B9A35D
     Accurately ripped (confidence 3)  [F42F9E1E]  (AR v2)
     Copy OK

Track  4

     Filename F:\2add\Various - 100 Hits - 70s Pop (CD-FLAC-Lossless) - 2009\CD3\04 - Jilted John - Jilted John.wav

     Pre-gap length  0:00:01.60

     Peak level 86.9 %
     Extraction speed 2.4 X
     Track quality 100.0 %
     Test CRC D221F333
     Copy CRC D221F333
     Accurately ripped (confidence 3)  [AF6F3C5E]  (AR v2)
     Copy OK

Track  5

     Filename F:\2add\Various - 100 Hits - 70s Pop (CD-FLAC-Lossless) - 2009\CD3\05 - Plastic Bertrand - Ca Plane Pour Moi.wav

     Pre-gap length  0:00:01.60

     Peak level 99.4 %
     Extraction speed 4.8 X
     Track quality 100.0 %
     Test CRC 5759852A
     Copy CRC 5759852A
     Accurately ripped (confidence 3)  [E678F819]  (AR v2)
     Copy OK

Track  6

     Filename F:\2add\Various - 100 Hits - 70s Pop (CD-FLAC-Lossless) - 2009\CD3\06 - The Dickies - Banana Splits.wav

     Pre-gap length  0:00:01.60

     Peak level 99.4 %
     Extraction speed 4.0 X
     Track quality 100.0 %
     Test CRC E79ED54A
     Copy CRC E79ED54A
     Accurately ripped (confidence 3)  [14E9A752]  (AR v2)
     Copy OK

Track  7

     Filename F:\2add\Various - 100 Hits - 70s Pop (CD-FLAC-Lossless) - 2009\CD3\07 - Jonathan Richman & The Modern Lovers - Roadrunner.wav

     Pre-gap length  0:00:01.60

     Peak level 88.5 %
     Extraction speed 6.1 X
     Track quality 100.0 %
     Test CRC 30F949A7
     Copy CRC 30F949A7
     Accurately ripped (confidence 3)  [61042F3B]  (AR v2)
     Copy OK

Track  8

     Filename F:\2add\Various - 100 Hits - 70s Pop (CD-FLAC-Lossless) - 2009\CD3\08 - Ian Dury & The Blockheads - What A Waste.wav

     Pre-gap length  0:00:01.60

     Peak level 99.4 %
     Extraction speed 6.3 X
     Track quality 100.0 %
     Test CRC 90681A68
     Copy CRC 90681A68
     Accurately ripped (confidence 3)  [0B4A6BC4]  (AR v2)
     Copy OK

Track  9

     Filename F:\2add\Various - 100 Hits - 70s Pop (CD-FLAC-Lossless) - 2009\CD3\09 - Eddie & The Hot Rods - Do Anything You Wanna Do.wav

     Pre-gap length  0:00:01.60

     Peak level 99.4 %
     Extraction speed 6.0 X
     Track quality 99.9 %
     Test CRC 824860CD
     Copy CRC 824860CD
     Accurately ripped (confidence 3)  [7F71C5C9]  (AR v2)
     Copy OK

Track 10

     Filename F:\2add\Various - 100 Hits - 70s Pop (CD-FLAC-Lossless) - 2009\CD3\10 - Joe Jackson - Is She Really Going Out With Him.wav

     Pre-gap length  0:00:01.60

     Peak level 99.4 %
     Extraction speed 6.9 X
     Track quality 100.0 %
     Test CRC 3EC33BE7
     Copy CRC 3EC33BE7
     Accurately ripped (confidence 3)  [E278EE12]  (AR v2)
     Copy OK

Track 11

     Filename F:\2add\Various - 100 Hits - 70s Pop (CD-FLAC-Lossless) - 2009\CD3\11 - The Jags - Back Of My Hand.wav

     Pre-gap length  0:00:01.60

     Peak level 97.8 %
     Extraction speed 6.9 X
     Track quality 100.0 %
     Test CRC BBEFC11D
     Copy CRC BBEFC11D
     Accurately ripped (confidence 3)  [CA7DC6D2]  (AR v2)
     Copy OK

Track 12

     Filename F:\2add\Various - 100 Hits - 70s Pop (CD-FLAC-Lossless) - 2009\CD3\12 - John Miles - Music.wav

     Pre-gap length  0:00:01.60

     Peak level 99.4 %
     Extraction speed 7.7 X
     Track quality 100.0 %
     Test CRC 5F1B97E7
     Copy CRC 5F1B97E7
     Accurately ripped (confidence 3)  [96376BB6]  (AR v2)
     Copy OK

Track 13

     Filename F:\2add\Various - 100 Hits - 70s Pop (CD-FLAC-Lossless) - 2009\CD3\13 - Slik - Forever And Ever.wav

     Pre-gap length  0:00:01.60

     Peak level 99.4 %
     Extraction speed 6.6 X
     Track quality 99.9 %
     Test CRC DCF57FCC
     Copy CRC DCF57FCC
     Accurately ripped (confidence 3)  [0AAAAC44]  (AR v2)
     Copy OK

Track 14

     Filename F:\2add\Various - 100 Hits - 70s Pop (CD-FLAC-Lossless) - 2009\CD3\14 - 10cc - The Things We Do For Love.wav

     Pre-gap length  0:00:01.60

     Peak level 99.4 %
     Extraction speed 7.6 X
     Track quality 100.0 %
     Test CRC A13B684A
     Copy CRC A13B684A
     Accurately ripped (confidence 3)  [40408D25]  (AR v2)
     Copy OK

Track 15

     Filename F:\2add\Various - 100 Hits - 70s Pop (CD-FLAC-Lossless) - 2009\CD3\15 - Jimmy Cliff - Wild World.wav

     Pre-gap length  0:00:01.60

     Peak level 96.6 %
     Extraction speed 7.1 X
     Track quality 99.9 %
     Test CRC 25839FD5
     Copy CRC 25839FD5
     Accurately ripped (confidence 3)  [8CF3981F]  (AR v2)
     Copy OK

Track 16

     Filename F:\2add\Various - 100 Hits - 70s Pop (CD-FLAC-Lossless) - 2009\CD3\16 - Third World - Now That We've Found Love.wav

     Pre-gap length  0:00:01.60

     Peak level 99.4 %
     Extraction speed 8.2 X
     Track quality 99.9 %
     Test CRC 7EFD308E
     Copy CRC 7EFD308E
     Accurately ripped (confidence 3)  [F6F814C9]  (AR v2)
     Copy OK

Track 17

     Filename F:\2add\Various - 100 Hits - 70s Pop (CD-FLAC-Lossless) - 2009\CD3\17 - Rod Stewart - You Wear It Well.wav

     Pre-gap length  0:00:01.60

     Peak level 99.4 %
     Extraction speed 0.3 X
     Track quality 97.7 %
     Test CRC 01DA1485
     Copy CRC 01DA1485
     Accurately ripped (confidence 3)  [83CCF24D]  (AR v2)
     Copy OK

Track 18

     Filename F:\2add\Various - 100 Hits - 70s Pop (CD-FLAC-Lossless) - 2009\CD3\18 - Free - All Right Now.wav

     Pre-gap length  0:00:01.60

     Peak level 99.4 %
     Extraction speed 8.7 X
     Track quality 100.0 %
     Test CRC 69FAD4AF
     Copy CRC 69FAD4AF
     Accurately ripped (confidence 3)  [CA74EC57]  (AR v2)
     Copy OK

Track 19

     Filename F:\2add\Various - 100 Hits - 70s Pop (CD-FLAC-Lossless) - 2009\CD3\19 - T. Rex - Solid Gold Easy Action.wav

     Pre-gap length  0:00:01.60

     Peak level 99.4 %
     Extraction speed 8.0 X
     Track quality 100.0 %
     Test CRC 15D6295B
     Copy CRC 15D6295B
     Accurately ripped (confidence 3)  [425B1A98]  (AR v2)
     Copy OK

Track 20

     Filename F:\2add\Various - 100 Hits - 70s Pop (CD-FLAC-Lossless) - 2009\CD3\20 - Lynyrd Skynyrd - Free Bird.wav

     Pre-gap length  0:00:01.60

     Peak level 96.6 %
     Extraction speed 9.2 X
     Track quality 100.0 %
     Test CRC 548CE6FC
     Copy CRC 548CE6FC
     Accurately ripped (confidence 3)  [E0DE75DB]  (AR v2)
     Copy OK

All tracks accurately ripped

No errors occurred

End of status report

---- CUETools DB Plugin V2.1.3

[CTDB TOCID: 9nZQFqX6WuFwk0rN8xPsIWF7wog-] disk not present in database, Submit result: 9nZQFqX6WuFwk0rN8xPsIWF7wog- has been uploaded

==== Log checksum 64FA9BC6996BFFE7DDAE8BD179D13B896963C5465D64C6B9ED4A2F3B9987921F ====
Код:
-----------------------

DON'T MODIFY THIS FILE

-----------------------

PERFORMER: auCDtect Task Manager, ver. 1.5.1RC6 build 1.5.1.7
Copyright (c) 2008-2010 y-soft. All rights reserved
http://y-soft.org

ANALYZER: auCDtect: CD records authenticity detector, version 0.8.2
Copyright (c) 2004 Oleg Berngardt. All rights reserved.
Copyright (c) 2004 Alexander Djourik. All rights reserved.

FILE: 20 - Lynyrd Skynyrd - Free Bird.flac
  Size: 42203594 Hash: 230F93C8FA4D68765667A8D43DC7135C Accuracy: -m0
  Conclusion: CDDA 100%
  Signature: 1874394CC009DC25F8BCB5DB5CD3047DD0F55BED
FILE: 19 - T. Rex - Solid Gold Easy Action.flac
  Size: 16399845 Hash: ED8B417C33DF9DD6162309AA7C007131 Accuracy: -m0
  Conclusion: CDDA 99%
  Signature: B3BE4D4E8835617D77E3C8E28F7477146BFBA434
FILE: 18 - Free - All Right Now.flac
  Size: 29046814 Hash: 7E7647A3128EE6E32F7D128219098E82 Accuracy: -m0
  Conclusion: CDDA 100%
  Signature: 20D34599B40F69C7EF5CA1FF9CC4118F9A6D01CD
FILE: 17 - Rod Stewart - You Wear It Well.flac
  Size: 30787599 Hash: 078E4457B3B227F92206C8DF80A842F9 Accuracy: -m0
  Conclusion: CDDA 100%
  Signature: 7FBE74DEDC4DF00F4663F9EB6B8B268EFC399165
FILE: 16 - Third World - Now That We've Found Love.flac
  Size: 56238733 Hash: EF15EE1681F0D0468FEE1B936C7410F9 Accuracy: -m0
  Conclusion: CDDA 100%
  Signature: 21DCB2FFB07CF8BBE8F1F1073E76D4F9760B3D22
FILE: 15 - Jimmy Cliff - Wild World.flac
  Size: 25329048 Hash: B78445D278DF627BC5B40BB582C30ED4 Accuracy: -m0
  Conclusion: CDDA 100%
  Signature: 2EF312108FD29476EAE0F4C64602BB5A7186CF54
FILE: 14 - 10cc - The Things We Do For Love.flac
  Size: 23351260 Hash: D98C5849738B27783848D7154A77F4FC Accuracy: -m0
  Conclusion: CDDA 100%
  Signature: D6536C3F8AA4978738FBE7DE04030A0FB1E5DF44
FILE: 13 - Slik - Forever And Ever.flac
  Size: 24071748 Hash: BE0B6104EE2FCEAD2D2469BB980BD100 Accuracy: -m0
  Conclusion: CDDA 100%
  Signature: 0345393B15A8231170047C7127AB32385318E303
FILE: 12 - John Miles - Music.flac
  Size: 40934721 Hash: 19D7C62C3E447638D8674422378672A9 Accuracy: -m0
  Conclusion: CDDA 100%
  Signature: 94B1CFC4EE513C248169BDD5C5F0546419AB50BF
FILE: 11 - The Jags - Back Of My Hand.flac
  Size: 25768537 Hash: 0BAD404279BCABA1AFE36B69ADA18179 Accuracy: -m0
  Conclusion: CDDA 100%
  Signature: 5F53F9A40909F66D8C059666F38C1FC21C3E7017
FILE: 10 - Joe Jackson - Is She Really Going Out With Him.flac
  Size: 21818401 Hash: 73D272CE225A3C3F19B305E828E04DCB Accuracy: -m0
  Conclusion: CDDA 100%
  Signature: 269D68A731A40FBA7594CF9B04CAD88728E37F62
FILE: 09 - Eddie & The Hot Rods - Do Anything You Wanna Do.flac
  Size: 29940789 Hash: 323DF2F8A2F2AE0E7C9464403FD24B9D Accuracy: -m0
  Conclusion: CDDA 100%
  Signature: 2C85EE669101D408800E4C248AD1E05AB829D8F9
FILE: 08 - Ian Dury & The Blockheads - What A Waste.flac
  Size: 23490030 Hash: 1961BC55115BA2EB25777EECF0D2DE8D Accuracy: -m0
  Conclusion: CDDA 100%
  Signature: 33BF5851CB8514059E9EA33B37063A7095E241C5
FILE: 07 - Jonathan Richman & The Modern Lovers - Roadrunner.flac
  Size: 29684004 Hash: C63DC0B38D61833E393D027CDA8F28F9 Accuracy: -m0
  Conclusion: CDDA 100%
  Signature: 9A735F21BA59FC0395D777C7418C0B90E90AA218
FILE: 06 - The Dickies - Banana Splits.flac
  Size: 15210453 Hash: 04C444A4CF634E22BFD0C0083E0A8620 Accuracy: -m0
  Conclusion: MPEG 85%
  Signature: B624E2A1687FB05906EB49E847DA8C94045AC576
FILE: 05 - Plastic Bertrand - Ca Plane Pour Moi.flac
  Size: 20779938 Hash: 4C850B4443A84BF44A8F29F3EFC06735 Accuracy: -m0
  Conclusion: CDDA 100%
  Signature: 5BC5D6673F922D649FB53A200AD7D01F2A034714
FILE: 04 - Jilted John - Jilted John.flac
  Size: 20563297 Hash: 74BEFA4E71B2E83C756D7989DAF7A4EE Accuracy: -m0
  Conclusion: CDDA 100%
  Signature: 6E545DFBF92A3F0AF4226A39148197988B7A0F04
FILE: 03 - Sham 69 - If The Kids Are United.flac
  Size: 26111861 Hash: 6E15547EA65354CD2DC9046D554F6AAF Accuracy: -m0
  Conclusion: CDDA 100%
  Signature: A6F67902F806CF9D1AED46CB09B9BBB1A36953A0
FILE: 02 - Squeeze - Up The Junction.flac
  Size: 22647996 Hash: 48E1C47A73F8019D74DDAB33FCEEB5DB Accuracy: -m0
  Conclusion: CDDA 100%
  Signature: D0168CDC184D974CE3EC65720CBD868F92655591
FILE: 01 - The Jam - The Eton Rifles.flac
  Size: 29515729 Hash: E8F846AFECAE0F4D6A76DAAF85B88BD5 Accuracy: -m0
  Conclusion: CDDA 100%
  Signature: B23248846BD4300745B1B2FC2C00C61F802CA1D4[/spoiler]
[spoiler] [spoiler="Спектрограммы"][img]http://img688.imageshack.us/img688/6894/06thedickiesbananasplit.jpg[/img] [/spoiler] [/spoiler] [b]Трек лист:[/b]

01. Kiss - I Was Made For Lovin' You [04:29]
02. Bachman Turner Overdrive - You Ain?t Seen Nothing Yet [03:30]
03. David Soul - Don't Give Up On Us Baby [03:37]
04. David Esses - Lamplight [02:55]
05. Donny Osmond - Young Love [02:30]
06. The Real Thing - Can't Get By Without You [03:19]
07. Billy Paul - Let 'Em In [05:05]
08. Brotherhood Of Man - Angelo [03:15]
09. Johnny Bristol - Hang On In There Baby [03:21]
10. R & J Stone - We Do It [03:20]
11. Gallagher & Lyle - I Wanna Stay With You [02:58]
12. Alessi - Oh Lordi [03:20]
13. Andy Fairweather Low - Wide Eyed And Legless [03:58]
14. Peters & Lee - Welcome Home [03:31]
15. Ralph McTell - Streets Of London [04:09]
16. Junior Campbell - Sweet Illusion [03:36]
17. Robin Sarstedt - My Resistance Is Low [02:49]
18. The Moody Blues - Question [04:56]
19. White Plains - My Baby Loves Lovin' [02:45]
20. Elkie Brooks - Lilac Wine [03:56]

[b]Продолжительность:[/b] 01:11:19 [spoiler] Код:
Exact Audio Copy V1.0 beta 3 from 29. August 2011

EAC extraction logfile from 15. December 2011, 22:46

Various / 100 Hits 70s Pop (CD4)

Used drive  : PIONEER DVD-RW  DVR-110D   Adapter: 0  ID: 0

Read mode               : Secure
Utilize accurate stream : Yes
Defeat audio cache      : Yes
Make use of C2 pointers : No

Read offset correction                      : 48
Overread into Lead-In and Lead-Out          : No
Fill up missing offset samples with silence : Yes
Delete leading and trailing silent blocks   : No
Null samples used in CRC calculations       : Yes
Used interface                              : Native Win32 interface for Win NT & 2000
Gap handling                                : Appended to previous track

Used output format              : User Defined Encoder
Selected bitrate                : 1024 kBit/s
Quality                         : High
Add ID3 tag                     : No
Command line compressor         : C:\Program Files\Exact Audio Copy\Flac\flac.exe
Additional command line options : -8 -V -T "ARTIST=%artist%" -T "TITLE=%title%" -T "ALBUM=%albumtitle%" -T "DATE=%year%" -T "TRACKNUMBER=%tracknr%" -T "GENRE=%genre%" -T "PERFORMER=%albuminterpret%" -T "COMPOSER=%composer%" %haslyrics%--tag-from-file=LYRICS="%lyricsfile%"%haslyrics% -T "ALBUMARTIST=%albumartist%" -T "DISCNUMBER=%cdnumber%" -T "TOTALDISCS=%totalcds%" -T "TOTALTRACKS=%numtracks%" -T "COMMENT=%comment%" %source% -o %dest%

TOC of the extracted CD

     Track |   Start  |  Length  | Start sector | End sector
    ---------------------------------------------------------
        1  |  0:00.00 |  4:28.65 |         0    |    20164
        2  |  4:28.65 |  3:29.44 |     20165    |    35883
        3  |  7:58.34 |  3:36.67 |     35884    |    52150
        4  | 11:35.26 |  2:55.19 |     52151    |    65294
        5  | 14:30.45 |  2:29.54 |     65295    |    76523
        6  | 17:00.24 |  3:19.11 |     76524    |    91459
        7  | 20:19.35 |  5:04.59 |     91460    |   114318
        8  | 25:24.19 |  3:15.31 |    114319    |   128974
        9  | 28:39.50 |  3:20.65 |    128975    |   144039
       10  | 32:00.40 |  3:19.59 |    144040    |   159023
       11  | 35:20.24 |  2:57.53 |    159024    |   172351
       12  | 38:18.02 |  3:19.48 |    172352    |   187324
       13  | 41:37.50 |  3:57.45 |    187325    |   205144
       14  | 45:35.20 |  3:30.69 |    205145    |   220963
       15  | 49:06.14 |  4:08.51 |    220964    |   239614
       16  | 53:14.65 |  3:36.22 |    239615    |   255836
       17  | 56:51.12 |  2:48.58 |    255837    |   268494
       18  | 59:39.70 |  4:56.27 |    268495    |   290721
       19  | 64:36.22 |  2:44.59 |    290722    |   303080
       20  | 67:21.06 |  3:55.40 |    303081    |   320745

Track  1

     Filename F:\2add\Various - 100 Hits - 70s Pop (CD-FLAC-Lossless) - 2009\CD4\01 - Kiss - I Was Made For Lovin' You.wav

     Pre-gap length  0:00:02.00

     Peak level 97.7 %
     Extraction speed 4.6 X
     Track quality 100.0 %
     Test CRC C7FF2752
     Copy CRC C7FF2752
     Track not present in AccurateRip database
     Copy OK

Track  2

     Filename F:\2add\Various - 100 Hits - 70s Pop (CD-FLAC-Lossless) - 2009\CD4\02 - Bachman Turner Overdrive - You Ainґt Seen Nothing Yet.wav

     Pre-gap length  0:00:01.60

     Peak level 96.6 %
     Extraction speed 4.8 X
     Track quality 100.0 %
     Test CRC 212114F2
     Copy CRC 212114F2
     Track not present in AccurateRip database
     Copy OK

Track  3

     Filename F:\2add\Various - 100 Hits - 70s Pop (CD-FLAC-Lossless) - 2009\CD4\03 - David Soul - Don't Give Up On Us Baby.wav

     Pre-gap length  0:00:01.60

     Peak level 87.0 %
     Extraction speed 5.2 X
     Track quality 100.0 %
     Test CRC A6163A0F
     Copy CRC A6163A0F
     Track not present in AccurateRip database
     Copy OK

Track  4

     Filename F:\2add\Various - 100 Hits - 70s Pop (CD-FLAC-Lossless) - 2009\CD4\04 - David Esses - Lamplight.wav

     Pre-gap length  0:00:01.60

     Peak level 97.4 %
     Extraction speed 4.5 X
     Track quality 99.9 %
     Test CRC 4832BF41
     Copy CRC 4832BF41
     Track not present in AccurateRip database
     Copy OK

Track  5

     Filename F:\2add\Various - 100 Hits - 70s Pop (CD-FLAC-Lossless) - 2009\CD4\05 - Donny Osmond - Young Love.wav

     Pre-gap length  0:00:01.60

     Peak level 89.9 %
     Extraction speed 4.5 X
     Track quality 99.9 %
     Test CRC D83F6F40
     Copy CRC D83F6F40
     Track not present in AccurateRip database
     Copy OK

Track  6

     Filename F:\2add\Various - 100 Hits - 70s Pop (CD-FLAC-Lossless) - 2009\CD4\06 - The Real Thing - Can't Get By Without You.wav

     Pre-gap length  0:00:01.60

     Peak level 97.7 %
     Extraction speed 5.8 X
     Track quality 100.0 %
     Test CRC CFA68747
     Copy CRC CFA68747
     Track not present in AccurateRip database
     Copy OK

Track  7

     Filename F:\2add\Various - 100 Hits - 70s Pop (CD-FLAC-Lossless) - 2009\CD4\07 - Billy Paul - Let 'Em In.wav

     Pre-gap length  0:00:01.60

     Peak level 96.6 %
     Extraction speed 5.9 X
     Track quality 99.9 %
     Test CRC 4D4D6D14
     Copy CRC 4D4D6D14
     Track not present in AccurateRip database
     Copy OK

Track  8

     Filename F:\2add\Various - 100 Hits - 70s Pop (CD-FLAC-Lossless) - 2009\CD4\08 - Brotherhood Of Man - Angelo.wav

     Pre-gap length  0:00:01.60

     Peak level 99.4 %
     Extraction speed 6.3 X
     Track quality 100.0 %
     Test CRC 2FC7A0DA
     Copy CRC 2FC7A0DA
     Track not present in AccurateRip database
     Copy OK

Track  9

     Filename F:\2add\Various - 100 Hits - 70s Pop (CD-FLAC-Lossless) - 2009\CD4\09 - Johnny Bristol - Hang On In There Baby.wav

     Pre-gap length  0:00:01.60

     Peak level 99.3 %
     Extraction speed 5.7 X
     Track quality 99.9 %
     Test CRC E4319CBC
     Copy CRC E4319CBC
     Track not present in AccurateRip database
     Copy OK

Track 10

     Filename F:\2add\Various - 100 Hits - 70s Pop (CD-FLAC-Lossless) - 2009\CD4\10 - R & J Stone - We Do It.wav

     Pre-gap length  0:00:01.60

     Peak level 99.4 %
     Extraction speed 6.7 X
     Track quality 100.0 %
     Test CRC 0D16A592
     Copy CRC 0D16A592
     Track not present in AccurateRip database
     Copy OK

Track 11

     Filename F:\2add\Various - 100 Hits - 70s Pop (CD-FLAC-Lossless) - 2009\CD4\11 - Gallagher & Lyle - I Wanna Stay With You.wav

     Pre-gap length  0:00:01.60

     Peak level 96.9 %
     Extraction speed 6.8 X
     Track quality 100.0 %
     Test CRC 894FA557
     Copy CRC 894FA557
     Track not present in AccurateRip database
     Copy OK

Track 12

     Filename F:\2add\Various - 100 Hits - 70s Pop (CD-FLAC-Lossless) - 2009\CD4\12 - Alessi - Oh Lordi.wav

     Pre-gap length  0:00:01.60

     Peak level 98.7 %
     Extraction speed 7.0 X
     Track quality 100.0 %
     Test CRC 3CA4B4D6
     Copy CRC 3CA4B4D6
     Track not present in AccurateRip database
     Copy OK

Track 13

     Filename F:\2add\Various - 100 Hits - 70s Pop (CD-FLAC-Lossless) - 2009\CD4\13 - Andy Fairweather Low - Wide Eyed And Legless.wav

     Pre-gap length  0:00:01.60

     Peak level 97.4 %
     Extraction speed 7.4 X
     Track quality 100.0 %
     Test CRC 8EF7F9E2
     Copy CRC 8EF7F9E2
     Track not present in AccurateRip database
     Copy OK

Track 14

     Filename F:\2add\Various - 100 Hits - 70s Pop (CD-FLAC-Lossless) - 2009\CD4\14 - Peters & Lee - Welcome Home.wav

     Pre-gap length  0:00:01.60

     Peak level 96.6 %
     Extraction speed 7.4 X
     Track quality 100.0 %
     Test CRC 7BBFDBA2
     Copy CRC 7BBFDBA2
     Track not present in AccurateRip database
     Copy OK

Track 15

     Filename F:\2add\Various - 100 Hits - 70s Pop (CD-FLAC-Lossless) - 2009\CD4\15 - Ralph McTell - Streets Of London.wav

     Pre-gap length  0:00:01.60

     Peak level 98.1 %
     Extraction speed 7.0 X
     Track quality 99.9 %
     Test CRC 9257790D
     Copy CRC 9257790D
     Track not present in AccurateRip database
     Copy OK

Track 16

     Filename F:\2add\Various - 100 Hits - 70s Pop (CD-FLAC-Lossless) - 2009\CD4\16 - Junior Campbell - Sweet Illusion.wav

     Pre-gap length  0:00:01.60

     Peak level 99.4 %
     Extraction speed 7.8 X
     Track quality 100.0 %
     Test CRC 9F14CC9A
     Copy CRC 9F14CC9A
     Track not present in AccurateRip database
     Copy OK

Track 17

     Filename F:\2add\Various - 100 Hits - 70s Pop (CD-FLAC-Lossless) - 2009\CD4\17 - Robin Sarstedt - My Resistance Is Low.wav

     Pre-gap length  0:00:01.60

     Peak level 94.1 %
     Extraction speed 7.7 X
     Track quality 100.0 %
     Test CRC F3018A06
     Copy CRC F3018A06
     Track not present in AccurateRip database
     Copy OK

Track 18

     Filename F:\2add\Various - 100 Hits - 70s Pop (CD-FLAC-Lossless) - 2009\CD4\18 - The Moody Blues - Question.wav

     Pre-gap length  0:00:01.60

     Peak level 84.1 %
     Extraction speed 7.8 X
     Track quality 100.0 %
     Test CRC 2F810DFE
     Copy CRC 2F810DFE
     Track not present in AccurateRip database
     Copy OK

Track 19

     Filename F:\2add\Various - 100 Hits - 70s Pop (CD-FLAC-Lossless) - 2009\CD4\19 - White Plains - My Baby Loves Lovin'.wav

     Pre-gap length  0:00:01.60

     Peak level 98.0 %
     Extraction speed 7.9 X
     Track quality 100.0 %
     Test CRC 07ED45EE
     Copy CRC 07ED45EE
     Track not present in AccurateRip database
     Copy OK

Track 20

     Filename F:\2add\Various - 100 Hits - 70s Pop (CD-FLAC-Lossless) - 2009\CD4\20 - Elkie Brooks - Lilac Wine.wav

     Pre-gap length  0:00:01.60

     Peak level 96.6 %
     Extraction speed 8.5 X
     Track quality 100.0 %
     Test CRC 5B59B471
     Copy CRC 5B59B471
     Track not present in AccurateRip database
     Copy OK

None of the tracks are present in the AccurateRip database

No errors occurred

End of status report

---- CUETools DB Plugin V2.1.3

[CTDB TOCID: pTOHyYafw4zejJH9ANzeRMWSOVQ-] disk not present in database, Submit result: insufficient quality

==== Log checksum 8BE361DAE7D8F7A65D20AFED405C9F9F319C4C206CE40E78CBDFC0FF70DBF91C ====
Код:
-----------------------

DON'T MODIFY THIS FILE

-----------------------

PERFORMER: auCDtect Task Manager, ver. 1.5.1RC6 build 1.5.1.7
Copyright (c) 2008-2010 y-soft. All rights reserved
http://y-soft.org

ANALYZER: auCDtect: CD records authenticity detector, version 0.8.2
Copyright (c) 2004 Oleg Berngardt. All rights reserved.
Copyright (c) 2004 Alexander Djourik. All rights reserved.

FILE: 20 - Elkie Brooks - Lilac Wine.flac
  Size: 25288096 Hash: 42B7E36D76076FDC6E9DBA9D2FBC173F Accuracy: -m0
  Conclusion: CDDA 100%
  Signature: 3408DE66A67EC7C846EF1C01B4E2CEA2A1272FFB
FILE: 19 - White Plains - My Baby Loves Lovin'.flac
  Size: 19449733 Hash: E8B13571ACBC5B6FADBBD9C692C86643 Accuracy: -m0
  Conclusion: CDDA 54%
  Signature: 034D807CA1B41A701875F8D566B503EC28268F08
FILE: 18 - The Moody Blues - Question.flac
  Size: 32391466 Hash: 25022BF5165AC6CAC07993A759973C39 Accuracy: -m0
  Conclusion: CDDA 100%
  Signature: BA2A9C86635E61019F3A11E1D258FA33E206115D
FILE: 17 - Robin Sarstedt - My Resistance Is Low.flac
  Size: 15877740 Hash: B7ADE8EC25739E1C4C79B105F3388EC7 Accuracy: -m0
  Conclusion: CDDA 100%
  Signature: 086B79E473B42ACEA36BD4AB5104D41C14DD1AE7
FILE: 16 - Junior Campbell - Sweet Illusion.flac
  Size: 23203331 Hash: FFA1496BB1DDFD75C8FA5FCFE5F7FBDB Accuracy: -m0
  Conclusion: CDDA 100%
  Signature: C87265D38B72E3D041AB31CCB7245E8887151D1F
FILE: 15 - Ralph McTell - Streets Of London.flac
  Size: 22558738 Hash: 16352D04BD0072219024D4515F6C7FC2 Accuracy: -m0
  Conclusion: CDDA 100%
  Signature: 429CC27674B3EC1370744AA3429771B041FBF2BF
FILE: 14 - Peters & Lee - Welcome Home.flac
  Size: 23074236 Hash: 291544121933A3D55DB111B3272FC1A5 Accuracy: -m0
  Conclusion: CDDA 100%
  Signature: 26A77B877CFBF10836AACC836AD1C9715D7A5378
FILE: 13 - Andy Fairweather Low - Wide Eyed And Legless.flac
  Size: 25742346 Hash: 7F7BEF32B3A163B09C8D636EB1B905BA Accuracy: -m0
  Conclusion: CDDA 100%
  Signature: FED90ABAF373A3DEC985156327EB00DE1DA40C34
FILE: 12 - Alessi - Oh Lordi.flac
  Size: 21334839 Hash: A8524DF32F3724A1C5B93E922550CA5F Accuracy: -m0
  Conclusion: CDDA 100%
  Signature: B8218D730DADBFE1CADC2649DD93CFA385A29F5D
FILE: 11 - Gallagher & Lyle - I Wanna Stay With You.flac
  Size: 18271553 Hash: 5A597F4F587C46455026D6F1B2887ECF Accuracy: -m0
  Conclusion: CDDA 100%
  Signature: 2B6F1BF4AA9334016A17DEFB63AE8871C4CDB995
FILE: 10 - R & J Stone - We Do It.flac
  Size: 21033676 Hash: D90106231B44D1B51E045892AF039C43 Accuracy: -m0
  Conclusion: CDDA 100%
  Signature: 5C794AEB74B55E3AA919AF66D12C2D091CD00D3A
FILE: 09 - Johnny Bristol - Hang On In There Baby.flac
  Size: 23403357 Hash: B5D4B4FBF9348FCD53045AE8E6C9A6ED Accuracy: -m0
  Conclusion: CDDA 100%
  Signature: 66CA6C7D81BEC7273AA21C70AAAFF139CE853614
FILE: 08 - Brotherhood Of Man - Angelo.flac
  Size: 21721509 Hash: 7A9FB3CDF010441AF4CB84437D870AA6 Accuracy: -m0
  Conclusion: CDDA 100%
  Signature: 4CE8CD3EF8F8362AC22CB3482927801C5D606BA5
FILE: 07 - Billy Paul - Let 'Em In.flac
  Size: 36386449 Hash: DD2EDF1543FD3F27DD24547BEFA74833 Accuracy: -m0
  Conclusion: CDDA 100%
  Signature: 26CEA5F04DC3B87C42A9F3F898872BBE8B1A7997
FILE: 06 - The Real Thing - Can't Get By Without You.flac
  Size: 22907649 Hash: C7AF6A2FA11B0F26E3E1F2BB7442C3A0 Accuracy: -m0
  Conclusion: CDDA 100%
  Signature: 96FD07E000F38250E5BE301A0AC862B3D71B02B4
FILE: 05 - Donny Osmond - Young Love.flac
  Size: 15741374 Hash: 3E4F234D7AF410760DB43D2571E42E78 Accuracy: -m0
  Conclusion: CDDA 100%
  Signature: E6D93B6A2791B76469CB664B9CC7E49850766B05
FILE: 04 - David Esses - Lamplight.flac
  Size: 18861155 Hash: D60BB1F568F61F682D0AE2AA50FE3D5F Accuracy: -m0
  Conclusion: CDDA 100%
  Signature: 77CFC7A4DC3C05A44EEF6F57C034EAEE30973AE3
FILE: 03 - David Soul - Don't Give Up On Us Baby.flac
  Size: 24380236 Hash: 39F8BC5A99B70E16960BDCCF0C06B7C5 Accuracy: -m0
  Conclusion: CDDA 100%
  Signature: 93E3AA9EC79A2EDBF3AF7B02BA9C9F5347239CF8
FILE: 02 - Bachman Turner Overdrive - You Ainґt Seen Nothing Yet.flac
  Size: 26469941 Hash: 986B4CA34F5D3D0219C1232D6E9672FF Accuracy: -m0
  Conclusion: CDDA 100%
  Signature: 38D0203D6F864C8C8F49E14A178E77C7D7222981
FILE: 01 - Kiss - I Was Made For Lovin' You.flac
  Size: 30888742 Hash: CD77487D2ABC842AF5A9CB5029668091 Accuracy: -m0
  Conclusion: MPEG 95%
  Signature: 4533D278B658B1FA8130AF1CBAB8B56E9C874DDB[/spoiler]
[spoiler] [spoiler="Спектрограммы"][img]http://img138.imageshack.us/img138/7885/youflacspectrogram.jpg[/img] [/spoiler] [/spoiler] [b]Трек лист:[/b]

01. Village People - Go West [03:34]
02. Leo Sayer - Moonlighting [04:11]
03. David Essex - Oh What A Circus [03:51]
04. The Osmonds - Let Me In [03:35]
05. Bonnie Tyler - Lost In France [03:54]
06. Elkie Brooks - Pearl's A Singer [03:37]
07. Jimmy James & The Vagabonds - Now Is The Time [03:35]
08. Donna Summer - MacArthur Park [03:57]
09. Peter Skellern - Hold On To Love [02:56]
10. The Mixtures - The Pushbike Song [02:31]
11. The New Seekers - I'd Like To Teach The World To Sing (In Perfect Harmony) [02:20]
12. Randy Edelman - Uptown Uptempo Woman [03:54]
13. Sweet Sensation - Purely By Coincidence [02:54]
14. Osibisa - Sunshine Day [03:20]
15. Captain & Tennille - Love Will Keep Us Together [03:24]
16. Bobby Bloom - Montego Bay [02:23]
17. Middle Of The Road - Tweedle Dee Tweedle Dum [03:08]
18. Gallagher & Lyle - Heart On My Sleeve [03:20]
19. Coco - Bad Old Days [02:39]
20. Demis Roussos - Forever And Ever [03:35]

[b]Продолжительность:[/b] 01:06:38 [spoiler]Код:
Exact Audio Copy V1.0 beta 3 from 29. August 2011

EAC extraction logfile from 16. December 2011, 1:01

Various / 100 Hits 70s Pop (CD5)

Used drive  : PIONEER DVD-RW  DVR-110D   Adapter: 0  ID: 0

Read mode               : Secure
Utilize accurate stream : Yes
Defeat audio cache      : Yes
Make use of C2 pointers : No

Read offset correction                      : 48
Overread into Lead-In and Lead-Out          : No
Fill up missing offset samples with silence : Yes
Delete leading and trailing silent blocks   : No
Null samples used in CRC calculations       : Yes
Used interface                              : Native Win32 interface for Win NT & 2000
Gap handling                                : Appended to previous track

Used output format              : User Defined Encoder
Selected bitrate                : 1024 kBit/s
Quality                         : High
Add ID3 tag                     : No
Command line compressor         : C:\Program Files\Exact Audio Copy\Flac\flac.exe
Additional command line options : -8 -V -T "ARTIST=%artist%" -T "TITLE=%title%" -T "ALBUM=%albumtitle%" -T "DATE=%year%" -T "TRACKNUMBER=%tracknr%" -T "GENRE=%genre%" -T "PERFORMER=%albuminterpret%" -T "COMPOSER=%composer%" %haslyrics%--tag-from-file=LYRICS="%lyricsfile%"%haslyrics% -T "ALBUMARTIST=%albumartist%" -T "DISCNUMBER=%cdnumber%" -T "TOTALDISCS=%totalcds%" -T "TOTALTRACKS=%numtracks%" -T "COMMENT=%comment%" %source% -o %dest%

TOC of the extracted CD

     Track |   Start  |  Length  | Start sector | End sector
    ---------------------------------------------------------
        1  |  0:00.00 |  3:34.27 |         0    |    16076
        2  |  3:34.27 |  4:10.63 |     16077    |    34889
        3  |  7:45.15 |  3:50.50 |     34890    |    52189
        4  | 11:35.65 |  3:34.56 |     52190    |    68295
        5  | 15:10.46 |  3:53.47 |     68296    |    85817
        6  | 19:04.18 |  3:37.25 |     85818    |   102117
        7  | 22:41.43 |  3:35.33 |    102118    |   118275
        8  | 26:17.01 |  3:56.72 |    118276    |   136047
        9  | 30:13.73 |  2:55.67 |    136048    |   149239
       10  | 33:09.65 |  2:30.38 |    149240    |   160527
       11  | 35:40.28 |  2:19.62 |    160528    |   171014
       12  | 38:00.15 |  3:54.05 |    171015    |   188569
       13  | 41:54.20 |  2:54.31 |    188570    |   201650
       14  | 44:48.51 |  3:19.74 |    201651    |   216649
       15  | 48:08.50 |  3:23.64 |    216650    |   231938
       16  | 51:32.39 |  2:22.45 |    231939    |   242633
       17  | 53:55.09 |  3:07.56 |    242634    |   256714
       18  | 57:02.65 |  3:20.37 |    256715    |   271751
       19  | 60:23.27 |  2:39.33 |    271752    |   283709
       20  | 63:02.60 |  3:34.48 |    283710    |   299807

Track  1

     Filename F:\2add\Various - 100 Hits - 70s Pop (CD-FLAC-Lossless) - 2009\CD5\01 - Village People - Go West.wav

     Pre-gap length  0:00:02.00

     Peak level 99.4 %
     Extraction speed 4.4 X
     Track quality 100.0 %
     Test CRC 076533B0
     Copy CRC 076533B0
     Accurately ripped (confidence 2)  [E081891C]  (AR v2)
     Copy OK

Track  2

     Filename F:\2add\Various - 100 Hits - 70s Pop (CD-FLAC-Lossless) - 2009\CD5\02 - Leo Sayer - Moonlighting.wav

     Pre-gap length  0:00:01.60

     Peak level 99.4 %
     Extraction speed 4.9 X
     Track quality 100.0 %
     Test CRC BD28AF63
     Copy CRC BD28AF63
     Accurately ripped (confidence 2)  [1444DA44]  (AR v2)
     Copy OK

Track  3

     Filename F:\2add\Various - 100 Hits - 70s Pop (CD-FLAC-Lossless) - 2009\CD5\03 - David Essex - Oh What A Circus.wav

     Pre-gap length  0:00:01.60

     Peak level 99.4 %
     Extraction speed 5.3 X
     Track quality 100.0 %
     Test CRC 8AEEB9A1
     Copy CRC 8AEEB9A1
     Accurately ripped (confidence 2)  [030FB5F1]  (AR v2)
     Copy OK

Track  4

     Filename F:\2add\Various - 100 Hits - 70s Pop (CD-FLAC-Lossless) - 2009\CD5\04 - The Osmonds - Let Me In.wav

     Pre-gap length  0:00:01.60

     Peak level 91.1 %
     Extraction speed 5.5 X
     Track quality 100.0 %
     Test CRC 4A3E9F0A
     Copy CRC 4A3E9F0A
     Accurately ripped (confidence 2)  [A4BAC828]  (AR v2)
     Copy OK

Track  5

     Filename F:\2add\Various - 100 Hits - 70s Pop (CD-FLAC-Lossless) - 2009\CD5\05 - Bonnie Tyler - Lost In France.wav

     Pre-gap length  0:00:01.60

     Peak level 99.4 %
     Extraction speed 5.9 X
     Track quality 100.0 %
     Test CRC 580F638D
     Copy CRC 580F638D
     Accurately ripped (confidence 2)  [86D2C1E7]  (AR v2)
     Copy OK

Track  6

     Filename F:\2add\Various - 100 Hits - 70s Pop (CD-FLAC-Lossless) - 2009\CD5\06 - Elkie Brooks - Pearl's A Singer.wav

     Pre-gap length  0:00:01.60

     Peak level 99.4 %
     Extraction speed 6.1 X
     Track quality 100.0 %
     Test CRC 3FCB8E82
     Copy CRC 3FCB8E82
     Accurately ripped (confidence 2)  [85060D0F]  (AR v2)
     Copy OK

Track  7

     Filename F:\2add\Various - 100 Hits - 70s Pop (CD-FLAC-Lossless) - 2009\CD5\07 - Jimmy James & The Vagabonds - Now Is The Time.wav

     Pre-gap length  0:00:01.60

     Peak level 75.7 %
     Extraction speed 5.6 X
     Track quality 99.9 %
     Test CRC 60A31DD7
     Copy CRC 60A31DD7
     Accurately ripped (confidence 2)  [B82F9BBF]  (AR v2)
     Copy OK

Track  8

     Filename F:\2add\Various - 100 Hits - 70s Pop (CD-FLAC-Lossless) - 2009\CD5\08 - Donna Summer - MacArthur Park.wav

     Pre-gap length  0:00:01.60

     Peak level 86.1 %
     Extraction speed 6.6 X
     Track quality 100.0 %
     Test CRC 41C7C800
     Copy CRC 41C7C800
     Accurately ripped (confidence 2)  [3EE158D4]  (AR v2)
     Copy OK

Track  9

     Filename F:\2add\Various - 100 Hits - 70s Pop (CD-FLAC-Lossless) - 2009\CD5\09 - Peter Skellern - Hold On To Love.wav

     Pre-gap length  0:00:01.60

     Peak level 86.5 %
     Extraction speed 6.5 X
     Track quality 100.0 %
     Test CRC A675E562
     Copy CRC A675E562
     Accurately ripped (confidence 2)  [218D90C6]  (AR v2)
     Copy OK

Track 10

     Filename F:\2add\Various - 100 Hits - 70s Pop (CD-FLAC-Lossless) - 2009\CD5\10 - The Mixtures - The Pushbike Song.wav

     Pre-gap length  0:00:01.60

     Peak level 96.6 %
     Extraction speed 6.6 X
     Track quality 100.0 %
     Test CRC 25BCC75B
     Copy CRC 25BCC75B
     Accurately ripped (confidence 2)  [9A4F809D]  (AR v2)
     Copy OK

Track 11

     Filename F:\2add\Various - 100 Hits - 70s Pop (CD-FLAC-Lossless) - 2009\CD5\11 - The New Seekers - I'd Like To Teach The World To Sing (In Perfect Harmony).wav

     Pre-gap length  0:00:01.60

     Peak level 96.6 %
     Extraction speed 6.5 X
     Track quality 100.0 %
     Test CRC 6060C700
     Copy CRC 6060C700
     Accurately ripped (confidence 2)  [5237A48E]  (AR v2)
     Copy OK

Track 12

     Filename F:\2add\Various - 100 Hits - 70s Pop (CD-FLAC-Lossless) - 2009\CD5\12 - Randy Edelman - Uptown Uptempo Woman.wav

     Pre-gap length  0:00:01.60

     Peak level 99.4 %
     Extraction speed 6.4 X
     Track quality 99.9 %
     Test CRC 8E5CB76F
     Copy CRC 8E5CB76F
     Accurately ripped (confidence 2)  [FC5F5E56]  (AR v2)
     Copy OK

Track 13

     Filename F:\2add\Various - 100 Hits - 70s Pop (CD-FLAC-Lossless) - 2009\CD5\13 - Sweet Sensation - Purely By Coincidence.wav

     Pre-gap length  0:00:01.60

     Peak level 72.0 %
     Extraction speed 7.0 X
     Track quality 100.0 %
     Test CRC 334D1878
     Copy CRC 334D1878
     Accurately ripped (confidence 2)  [192E1033]  (AR v2)
     Copy OK

Track 14

     Filename F:\2add\Various - 100 Hits - 70s Pop (CD-FLAC-Lossless) - 2009\CD5\14 - Osibisa - Sunshine Day.wav

     Pre-gap length  0:00:01.60

     Peak level 99.4 %
     Extraction speed 7.4 X
     Track quality 100.0 %
     Test CRC 0359EC40
     Copy CRC 0359EC40
     Accurately ripped (confidence 2)  [7951FBE9]  (AR v2)
     Copy OK

Track 15

     Filename F:\2add\Various - 100 Hits - 70s Pop (CD-FLAC-Lossless) - 2009\CD5\15 - Captain & Tennille - Love Will Keep Us Together.wav

     Pre-gap length  0:00:01.60

     Peak level 99.4 %
     Extraction speed 6.6 X
     Track quality 99.9 %
     Test CRC 763EF77B
     Copy CRC 763EF77B
     Accurately ripped (confidence 2)  [A2A2B556]  (AR v2)
     Copy OK

Track 16

     Filename F:\2add\Various - 100 Hits - 70s Pop (CD-FLAC-Lossless) - 2009\CD5\16 - Bobby Bloom - Montego Bay.wav

     Pre-gap length  0:00:01.60

     Peak level 99.4 %
     Extraction speed 7.2 X
     Track quality 100.0 %
     Test CRC 50F8D9A5
     Copy CRC 50F8D9A5
     Accurately ripped (confidence 2)  [76B8BCD8]  (AR v2)
     Copy OK

Track 17

     Filename F:\2add\Various - 100 Hits - 70s Pop (CD-FLAC-Lossless) - 2009\CD5\17 - Middle Of The Road - Tweedle Dee Tweedle Dum.wav

     Pre-gap length  0:00:01.09

     Peak level 99.4 %
     Extraction speed 6.2 X
     Track quality 100.0 %
     Test CRC 2F7DB19C
     Copy CRC 2F7DB19C
     Accurately ripped (confidence 2)  [9468E494]  (AR v2)
     Copy OK

Track 18

     Filename F:\2add\Various - 100 Hits - 70s Pop (CD-FLAC-Lossless) - 2009\CD5\18 - Gallagher & Lyle - Heart On My Sleeve.wav

     Pre-gap length  0:00:01.51

     Peak level 99.4 %
     Extraction speed 7.0 X
     Track quality 99.9 %
     Test CRC D62CE8AD
     Copy CRC D62CE8AD
     Accurately ripped (confidence 2)  [DC67C569]  (AR v2)
     Copy OK

Track 19

     Filename F:\2add\Various - 100 Hits - 70s Pop (CD-FLAC-Lossless) - 2009\CD5\19 - Coco - Bad Old Days.wav

     Pre-gap length  0:00:01.51

     Peak level 98.8 %
     Extraction speed 7.9 X
     Track quality 100.0 %
     Test CRC FB8DA7E1
     Copy CRC FB8DA7E1
     Accurately ripped (confidence 2)  [CDA54339]  (AR v2)
     Copy OK

Track 20

     Filename F:\2add\Various - 100 Hits - 70s Pop (CD-FLAC-Lossless) - 2009\CD5\20 - Demis Roussos - Forever And Ever.wav

     Pre-gap length  0:00:01.52

     Peak level 80.3 %
     Extraction speed 8.3 X
     Track quality 100.0 %
     Test CRC 20262B08
     Copy CRC 20262B08
     Accurately ripped (confidence 2)  [5CFF8E89]  (AR v2)
     Copy OK

All tracks accurately ripped

No errors occurred

End of status report

---- CUETools DB Plugin V2.1.3

[CTDB TOCID: bkXMaM1AP4hy3trJ0s9E36ag8ho-] disk not present in database, Submit result: bkXMaM1AP4hy3trJ0s9E36ag8ho- has been uploaded

==== Log checksum 48EC392BC7F9C86BD4122F388DF09FC7DED1C65559531C2E51DA8C352D9687EF ====
Код:
-----------------------

DON'T MODIFY THIS FILE

-----------------------

PERFORMER: auCDtect Task Manager, ver. 1.5.1RC6 build 1.5.1.7
Copyright (c) 2008-2010 y-soft. All rights reserved
http://y-soft.org

ANALYZER: auCDtect: CD records authenticity detector, version 0.8.2
Copyright (c) 2004 Oleg Berngardt. All rights reserved.
Copyright (c) 2004 Alexander Djourik. All rights reserved.

FILE: 20 - Demis Roussos - Forever And Ever.flac
  Size: 23805020 Hash: 4B262FF95EC35610476DB055982EE37B Accuracy: -m0
  Conclusion: CDDA 100%
  Signature: D9311D696CADADA5FF687E3752280E18458F04F0
FILE: 19 - Coco - Bad Old Days.flac
  Size: 18190177 Hash: 377EDAD51E43E166E8451FCAC1CC0900 Accuracy: -m0
  Conclusion: CDDA 100%
  Signature: 2FE5AEE0FD7D8E857599CC3DE0AA246CADA9CC99
FILE: 18 - Gallagher & Lyle - Heart On My Sleeve.flac
  Size: 20272720 Hash: 4D360EB6FE327EF83F62EC3C87C0D7B1 Accuracy: -m0
  Conclusion: CDDA 100%
  Signature: DDFEDEC96E57099D6C05F4CAF4EA6E4BA16C595F
FILE: 17 - Middle Of The Road - Tweedle Dee Tweedle Dum.flac
  Size: 19873720 Hash: 20D9621286D9706A88857579F53AA230 Accuracy: -m0
  Conclusion: MPEG 95%
  Signature: C000E686657EF9E9E9AA7664A2C10D2E9F1E6D07
FILE: 16 - Bobby Bloom - Montego Bay.flac
  Size: 15894012 Hash: C856A61B8D02AA61B587E4C8E4D94520 Accuracy: -m0
  Conclusion: CDDA 100%
  Signature: C75AD1ECBE9AE42983A601F7D2BA3A22EBE7ABEA
FILE: 15 - Captain & Tennille - Love Will Keep Us Together.flac
  Size: 25057347 Hash: 3BD04BF6C36D6EF22DEF0D9C26A8557E Accuracy: -m0
  Conclusion: CDDA 100%
  Signature: 5E08628E9D3047A81671CF1C4F32D5048C3767A3
FILE: 14 - Osibisa - Sunshine Day.flac
  Size: 24112719 Hash: 45DE19132661DE7AF4F9A1EFC933CA32 Accuracy: -m0
  Conclusion: CDDA 100%
  Signature: 32CFA027E2466308AD91015DA40123AE817DF0EC
FILE: 13 - Sweet Sensation - Purely By Coincidence.flac
  Size: 22427390 Hash: 57186D6E4F22A8A991F3C0B4AF28C1BD Accuracy: -m0
  Conclusion: CDDA 100%
  Signature: 2DBE6A8AD5CF3AD808207445418F543C461D7049
FILE: 12 - Randy Edelman - Uptown Uptempo Woman.flac
  Size: 23158992 Hash: 7800C971F4D9623E68D8861165400DD0 Accuracy: -m0
  Conclusion: CDDA 99%
  Signature: 86E76A6160F022C3A791FD7204906ACD167C627A
FILE: 11 - The New Seekers - I'd Like To Teach The World To Sing (In Perfect Harmony).flac
  Size: 16360265 Hash: A8E2AD740379528064CB4401A8995551 Accuracy: -m0
  Conclusion: CDDA 100%
  Signature: 77A659F46C128BB628A838F09D899E1BC5895135
FILE: 10 - The Mixtures - The Pushbike Song.flac
  Size: 18407024 Hash: 93C8123C2D8768452D1B325F8315B2B3 Accuracy: -m0
  Conclusion: CDDA 100%
  Signature: EF585A76F13A913730B614F1334E0A434AA9C2CE
FILE: 09 - Peter Skellern - Hold On To Love.flac
  Size: 18791858 Hash: 3D04B51EA566C9D37DB3E54FFFAB44DE Accuracy: -m0
  Conclusion: CDDA 100%
  Signature: 88D4B234DFBA5F825284BFAAF325DA59A8518B8F
FILE: 08 - Donna Summer - MacArthur Park.flac
  Size: 28295566 Hash: EB126CD55B4609930227A3BF4E90FCFE Accuracy: -m0
  Conclusion: CDDA 100%
  Signature: 244BE172DAC01C7A196DD7A325A72216003B5EDA
FILE: 07 - Jimmy James & The Vagabonds - Now Is The Time.flac
  Size: 24314055 Hash: 8FA2AB8BA59ADD6A4474207877F335F3 Accuracy: -m0
  Conclusion: CDDA 100%
  Signature: E238C1B0AC30E13547B4318E207A869CA1373C72
FILE: 06 - Elkie Brooks - Pearl's A Singer.flac
  Size: 22871865 Hash: 98AF98E29E13BA212BCCCF1FC2A54E0B Accuracy: -m0
  Conclusion: CDDA 100%
  Signature: 4BC25575E4B5953B8B8D10A6929108C898062800
FILE: 05 - Bonnie Tyler - Lost In France.flac
  Size: 28006961 Hash: 742CD639347B4BD9BF3D64BB10A247DF Accuracy: -m0
  Conclusion: CDDA 100%
  Signature: A633846E638BEBC2088453FED40CAD3CC7C696C5
FILE: 04 - The Osmonds - Let Me In.flac
  Size: 26595507 Hash: FC84E9C6886058C54C31D5B1E6E479E4 Accuracy: -m0
  Conclusion: CDDA 100%
  Signature: BCC220342E5AEE8177C6A3090D7145BCB7BA9940
FILE: 03 - David Essex - Oh What A Circus.flac
  Size: 28567671 Hash: 40333ACD1C45A8843DE6101121BC2F89 Accuracy: -m0
  Conclusion: CDDA 100%
  Signature: 53E6C9C10423E1169C7837687DDC09A4B12CB208
FILE: 02 - Leo Sayer - Moonlighting.flac
  Size: 25541147 Hash: 74D5B83CD8E1317179213C4BCA56734E Accuracy: -m0
  Conclusion: CDDA 100%
  Signature: CAD0D800A952CE326D82083DD0E3FC1C9CC62DD4
FILE: 01 - Village People - Go West.flac
  Size: 27659375 Hash: 4A9EE6608CB02C90FCA29D97B0E15CBF Accuracy: -m0
  Conclusion: CDDA 99%
  Signature: 51013998DC20A0ABB5131BB2A6A99DE7F785C696[/spoiler]
[spoiler] [spoiler="Спектрограммы"][img]http://img585.imageshack.us/img585/6297/17middleoftheroadtweedl.jpg[/img] [/spoiler] [/spoiler] [b]Время раздачи:[/b] 24/7 [hr][/hr]

[size=117]
[b]Поглощение/вытеснение [/b]
[b]Только с согласия релизера[/b][/size]
[b][u][size=92][i]J_Man[/i][/size][/u][/b]


У вас нет необходимых прав для просмотра вложений в этом сообщении.


Вернуться к началу
 Профиль  
Ответить с цитатой  
  • Торрент
Автор: oartemka178 Хэш: ---
Добавлен: 2012-12-28 14:20 Приватный: Нет (DHT включён)
Статус:
---
Размер: 2.34 ГБ (2 512 228 949 байт)
Изменил:
---
Скачали: 2 (Раздающих: 0%)
Причина:
---
Здоровье: 0%
Сидеров: 0 Личеров: 0
Скорость раздачи: 0 байт/сек Скорость скачивания: 0 байт/сек
Последний сидер: Нет Последний личер: Нет
Для скачивания торрента необходимо зарегистрироваться или войти на трекер.
Показать сообщения за:  Поле сортировки  
Начать новую тему Ответить на тему  [ 1 сообщение ] 

Часовой пояс: UTC + 3 часа


Кто сейчас на конференции

Сейчас этот форум просматривают: нет зарегистрированных пользователей и гости: 0


Вы не можете начинать темы
Вы не можете отвечать на сообщения
Вы не можете редактировать свои сообщения
Вы не можете удалять свои сообщения
Вы не можете добавлять вложения

Найти:
Перейти:  
cron
Переместиться наверх
 Главная |  Список форумов |   Time : 0.101s | 15 Queries | GZIP : Off |
tracker_cron