Часовой пояс: UTC + 3 часа




Начать новую тему Ответить на тему  [ 1 сообщение ] 
Автор Сообщение
СообщениеДобавлено: 2019-08-15 22:24 
Не в сети
Администратор
Администратор
Аватара пользователя
Раздал: 80 КБ
Скачал: 0 байт
Ратио: Seed.


Зарегистрирован: 2010-01-16 12:34
Сообщения: 306
Юность / Adolescence


#777

Информация о фильме
Название: Юность
Оригинальное название: Adolescence
Год выпуска: 2018
Страна: США
Студия: Winterstone Pictures
Продолжительность: 01:46:16
Перевод: Профессиональный (многоголосый закадровый) HDRezka Studio
Жанр: Драма, мелодрама

Режиссер: Эшли Эйвис

В ролях:
Индиа Айсли, Мики Ривер, Лил Ромео, Томми Флэнаган, Элизабет Рём, Майкл Милфорд, Джер Бернс, Эвер Кэрредин, Кортни Бандеко, Криста Джаспер

О фильме:
Адам — творческий и застенчивый старшеклассник из неблагополучной семьи, который старается смягчить постоянные конфликты между запуганной матерью и темпераментным отцом, а также обрести уверенность в общении со сверстниками. Однажды он набирается смелости, чтобы познакомиться с красоткой Алисой, которая неожиданно отвечает ему взаимностью, привнося в скучное существование подростка веселье и непредсказуемость. Но иллюзия счастливой жизни начинает рассеиваться, когда употребление наркотиков становится обыденным делом во время совместного времяпрепровождения с Алисой.



Файл
Формат: MKV
Качество: WEB-DL 1080p
Видео: MPEG-4 AVC Video, 1920x1080 (16:9), 7245 Kbps, 23.976 fps
Аудио#1: Russian (AAC, 2 ch, 132 kbps, 16 bits, 48.0 KHz) - HDRezka Studio
Аудио#2: English (E-AC3, 2 ch, 224 kbps, 16 bits, 48.0 KHz) - Оригинал
Субтитры: Русские (Forced), английские



General
Unique ID : 46768608132124199941205006944877721608 (0x232F4E68C0A701D686A81DA2E2E0B808)
Complete name : G:Adolescence.2018.AMZN.WEB-DL.1080p.mkv
Format : Matroska
Format version : Version 4 / Version 2
File size : 5.64 GiB
Duration : 1 h 46 min
Overall bit rate : 7 604 kb/s
Encoded date : UTC 2019-08-13 13:34:46
Writing application : mkvmerge v20.0.0 ('I Am The Sun') 64-bit
Writing library : libebml v1.3.5 + libmatroska v1.4.8

Video
ID : 1
Format : AVC
Format/Info : Advanced Video Codec
Format profile : High@L4
Format settings : CABAC / 4 Ref Frames
Format settings, CABAC : Yes
Format settings, RefFrames : 4 frames
Codec ID : V_MPEG4/ISO/AVC
Duration : 1 h 46 min
Bit rate mode : Constant
Bit rate : 7 245 kb/s
Nominal bit rate : 10 000 kb/s
Width : 1 920 pixels
Height : 1 080 pixels
Display aspect ratio : 16:9
Frame rate mode : Constant
Frame rate : 23.976 (24000/1001) FPS
Color space : YUV
Chroma subsampling : 4:2:0
Bit depth : 8 bits
Scan type : Progressive
Bits/(Pixel*Frame) : 0.146
Stream size : 5.38 GiB (95%)
Language : English
Default : Yes
Forced : No
Color range : Limited
Color primaries : BT.709
Transfer characteristics : BT.709
Matrix coefficients : BT.709

Audio #1
ID : 2
Format : AAC
Format/Info : Advanced Audio Codec
Format profile : LC
Codec ID : A_AAC-2
Duration : 1 h 46 min
Bit rate : 132 kb/s
Channel(s) : 2 channels
Channel positions : Front: L R
Sampling rate : 48.0 kHz
Frame rate : 46.875 FPS (1024 SPF)
Compression mode : Lossy
Stream size : 101 MiB (2%)
Title : MVO HDRezka Studio
Language : Russian
Default : Yes
Forced : No

Audio #2
ID : 3
Format : E-AC-3
Format/Info : Enhanced Audio Coding 3
Codec ID : A_EAC3
Duration : 1 h 46 min
Bit rate mode : Constant
Bit rate : 224 kb/s
Channel(s) : 2 channels
Channel positions : Front: L R
Sampling rate : 48.0 kHz
Frame rate : 187.500 FPS (256 SPF)
Compression mode : Lossy
Stream size : 170 MiB (3%)
Language : English
Service kind : Complete Main
Default : No
Forced : No

Text #1
ID : 4
Format : UTF-8
Codec ID : S_TEXT/UTF8
Codec ID/Info : UTF-8 Plain Text
Duration : 43 min 53 s
Bit rate : 0 b/s
Count of elements : 6
Stream size : 269 Bytes (0%)
Title : forced
Language : Russian
Default : Yes
Forced : Yes

Text #2
ID : 5
Format : UTF-8
Codec ID : S_TEXT/UTF8
Codec ID/Info : UTF-8 Plain Text
Duration : 1 h 44 min
Bit rate : 53 b/s
Count of elements : 2043
Stream size : 41.4 KiB (0%)
Language : English
Default : No
Forced : No


У вас нет необходимых прав для просмотра вложений в этом сообщении.


Вернуться к началу
 Профиль  
Ответить с цитатой  
  • Торрент
Автор: Admin Хэш: ---
Добавлен: 2019-08-15 22:24 Приватный: Нет (DHT включён)
Статус: Проверен
Размер: 5.64 ГБ (6 060 642 335 байт)
Изменил:
---
Скачали: 0 (Раздающих: 0%)
Причина:
---
Здоровье: 0%
Сидеров: 0 Личеров: 0
Скорость раздачи: 0 байт/сек Скорость скачивания: 0 байт/сек
Последний сидер: Нет Последний личер: Нет
Для скачивания торрента необходимо зарегистрироваться или войти на трекер.
Показать сообщения за:  Поле сортировки  
Начать новую тему Ответить на тему  [ 1 сообщение ] 

Часовой пояс: UTC + 3 часа


Кто сейчас на конференции

Сейчас этот форум просматривают: нет зарегистрированных пользователей и гости: 2


Вы не можете начинать темы
Вы не можете отвечать на сообщения
Вы не можете редактировать свои сообщения
Вы не можете удалять свои сообщения
Вы не можете добавлять вложения

Найти:
Перейти:  
cron
cron