Часовой пояс: UTC + 3 часа




Начать новую тему Ответить на тему  [ 1 сообщение ] 
Автор Сообщение
СообщениеДобавлено: 2019-08-18 21:14 
Не в сети
Администратор
Администратор
Аватара пользователя
Раздал: 80 КБ
Скачал: 0 байт
Ратио: Seed.


Зарегистрирован: 2010-01-16 12:34
Сообщения: 303
Джон Уик 3 / John Wick: Chapter 3 - Parabellum


#777

Информация о фильме
Название: Джон Уик 3
Оригинальное название: John Wick: Chapter 3 - Parabellum
Год выхода: 2019
Страна: США
Продолжительность: 02:11:05
Перевод: Профессиональный (многоголосый закадровый) [HDRezka Studio]
Жанр: боевик, триллер, криминал

Режиссер: Чад Стахелски

В ролях:
Киану Ривз, Холли Берри, Иэн МакШейн, Лоуренс Фишборн, Марк Дакаскос, Азия Диллон, Лэнс Реддик, Тобиаш Сигал, Анжелика Хьюстон, Саид Тагмауи

О фильме:
Суперкиллер Джон Уик после нарушения кодекса тайной гильдии ассасинов получает статус изгоя — экскомьюникадо. За его голову назначена цена в 14 миллионов долларов, и армия самых жестоких профессиональных убийц со всего мира открывает на него кровавую охоту



Сэмпл

Файл
Кодек: H.265
Качество: BDRip-HEVC 1080p
Видео: HEVC, 1920x800 (2.40:1), 23.976 fps, 6 966 kb/s
Аудио 1: AC-3, 48.0 kHz, 2 ch, 192 kb/s | RUS (MVO/HDRezka Studio)
Аудио 2: AC-3, 48.0 kHz, 2 ch, 192 kb/s | UKR (DUB/Line)
Аудио 3: DTS, 48.0 kHz, 6 ch, 1 509 kb/s | ENG (Оригинал)
Субтитры: Русские (форс. + форс. цветные), английские (форс, полные)

General
Unique ID : 199902937971597546788623753632023430990 (0x9663E7C9AC7FF450B8A38BE05E2DC74E)
Complete name : John Wick Chapter 3 Parabellum.2019.BDRip.1080p.HEVC.mkv
Format : Matroska
Format version : Version 4
File size : 8.11 GiB
Duration : 2 h 11 min
Overall bit rate : 8 862 kb/s
Encoded date : UTC 2019-08-17 18:15:42
Writing application : mkvmerge v8.3.0 ('Over the Horizon') 64bit
Writing library : libebml v1.3.1 + libmatroska v1.4.2

Video
ID : 1
Format : HEVC
Format/Info : High Efficiency Video Coding
Format profile : Main 10@L4.1@High
Codec ID : V_MPEGH/ISO/HEVC
Duration : 2 h 11 min
Bit rate : 6 966 kb/s
Width : 1 920 pixels
Height : 800 pixels
Display aspect ratio : 2.40:1
Frame rate mode : Constant
Frame rate : 23.976 (24000/1001) FPS
Color space : YUV
Chroma subsampling : 4:2:0
Bit depth : 10 bits
Bits/(Pixel*Frame) : 0.189
Stream size : 6.38 GiB (79%)
Language : English
Default : Yes
Forced : No
Color range : Limited
Color primaries : BT.709
Transfer characteristics : BT.709
Matrix coefficients : BT.709

Audio #1
ID : 2
Format : AC-3
Format/Info : Audio Coding 3
Commercial name : Dolby Digital
Codec ID : A_AC3
Duration : 2 h 11 min
Bit rate mode : Constant
Bit rate : 192 kb/s
Channel(s) : 2 channels
Channel layout : L R
Sampling rate : 48.0 kHz
Frame rate : 31.250 FPS (1536 SPF)
Bit depth : 16 bits
Compression mode : Lossy
Stream size : 180 MiB (2%)
Title : MVO (HDRezka Studio)
Language : Russian
Default : Yes
Forced : No

Audio #2
ID : 3
Format : AC-3
Format/Info : Audio Coding 3
Commercial name : Dolby Digital
Codec ID : A_AC3
Duration : 2 h 11 min
Bit rate mode : Constant
Bit rate : 192 kb/s
Channel(s) : 2 channels
Channel layout : L R
Sampling rate : 48.0 kHz
Frame rate : 31.250 FPS (1536 SPF)
Bit depth : 16 bits
Compression mode : Lossy
Stream size : 180 MiB (2%)
Title : DUB (Line)
Language : Ukrainian
Default : No
Forced : No

Audio #3
ID : 4
Format : DTS
Format/Info : Digital Theater Systems
Codec ID : A_DTS
Duration : 2 h 11 min
Bit rate mode : Constant
Bit rate : 1 509 kb/s
Channel(s) : 6 channels
Channel layout : C L R Ls Rs LFE
Sampling rate : 48.0 kHz
Frame rate : 93.750 FPS (512 SPF)
Bit depth : 24 bits
Compression mode : Lossy
Stream size : 1.38 GiB (17%)
Language : English
Default : No
Forced : No

Text #1
ID : 5
Format : UTF-8
Codec ID : S_TEXT/UTF8
Codec ID/Info : UTF-8 Plain Text
Duration : 1 h 34 min
Bit rate : 1 b/s
Count of elements : 24
Stream size : 809 Bytes (0%)
Title : Forced
Language : Russian
Default : Yes
Forced : Yes

Text #2
ID : 6
Format : UTF-8
Codec ID : S_TEXT/UTF8
Codec ID/Info : UTF-8 Plain Text
Duration : 1 h 34 min
Bit rate : 2 b/s
Count of elements : 24
Stream size : 1.47 KiB (0%)
Title : Forced (colored)
Language : Russian
Default : No
Forced : No

Text #3
ID : 7
Format : UTF-8
Codec ID : S_TEXT/UTF8
Codec ID/Info : UTF-8 Plain Text
Duration : 1 h 34 min
Bit rate : 0 b/s
Count of elements : 33
Stream size : 667 Bytes (0%)
Title : Forced
Language : English
Default : No
Forced : No

Text #4
ID : 8
Format : UTF-8
Codec ID : S_TEXT/UTF8
Codec ID/Info : UTF-8 Plain Text
Duration : 1 h 59 min
Bit rate : 24 b/s
Count of elements : 764
Stream size : 21.3 KiB (0%)
Title : Full
Language : English
Default : No
Forced : No

Menu
00:00:00.000 : :Chapter 1
00:05:32.374 : :Chapter 2
00:20:17.591 : :Chapter 3
00:31:45.570 : :Chapter 4
00:41:08.257 : :Chapter 5
00:50:46.669 : :Chapter 6
01:03:15.667 : :Chapter 7
01:14:46.857 : :Chapter 8
01:23:05.105 : :Chapter 9
01:28:51.243 : :Chapter 10
01:49:32.316 : :Chapter 11
02:02:16.996 : :Chapter 12


17.08.19 Добавлены русские форсированные субтитры, украинская аудио дорожка


У вас нет необходимых прав для просмотра вложений в этом сообщении.


Вернуться к началу
 Профиль  
Ответить с цитатой  
  • Торрент
Автор: Admin Хэш: ---
Добавлен: 2019-08-18 21:14 Приватный: Нет (DHT включён)
Статус: Проверен
Размер: 8.11 ГБ (8 712 258 546 байт)
Изменил:
---
Скачали: 0 (Раздающих: 0%)
Причина:
---
Здоровье: 0%
Сидеров: 0 Личеров: 0
Скорость раздачи: 0 байт/сек Скорость скачивания: 0 байт/сек
Последний сидер: Нет Последний личер: Нет
Для скачивания торрента необходимо зарегистрироваться или войти на трекер.
Показать сообщения за:  Поле сортировки  
Начать новую тему Ответить на тему  [ 1 сообщение ] 

Часовой пояс: UTC + 3 часа


Кто сейчас на конференции

Сейчас этот форум просматривают: нет зарегистрированных пользователей и гости: 0


Вы не можете начинать темы
Вы не можете отвечать на сообщения
Вы не можете редактировать свои сообщения
Вы не можете удалять свои сообщения
Вы не можете добавлять вложения

Найти:
Перейти:  
cron
cron