Часовой пояс: UTC + 3 часа




Начать новую тему Ответить на тему  [ 1 сообщение ] 
Автор Сообщение
СообщениеДобавлено: 2019-08-20 23:28 
Не в сети
Администратор
Администратор
Аватара пользователя
Раздал: 80 КБ
Скачал: 0 байт
Ратио: Seed.


Зарегистрирован: 2010-01-16 12:34
Сообщения: 306
Между мирами / Between Worlds
«There is a Fine Line Between Pleasure and Pain»


#777

Год выпуска: 2018
Страна: Испания
Производство: Rise Up
Перевод: Профессиональный многоголосый | [iTunes], Профессиональный многоголосый | [HDRezka Studio]
Продолжительность: 01:30:18
Субтитры: Английские (полные, SDH)
Жанр: Боевик, триллер, детектив

Режиссёр: Мария Пулера

В ролях:
Николас Кейдж, Лидия Хёрст, Франка Потенте, Пенелопа Митчелл, Гарретт Клэйтон, Хоппер Пенн, Дэвид Ли Смит, Бриттани Шоу, Филип Форнах, Том Уильямс

Описание:
Когда в жизни Джо произошла трагедия и он потерял жену и дочь, то был готов пойти на все, чтобы вернуть их к жизни. После встречи с Джулией, которая умеет вызывать умерших, он обретает надежду на то, что это возможно, однако в его жизни начинает происходить нечто странное, он сталкивается с мистическими явлениями и со злом, не желающим просто так уходить.



Реклама: Отсутствует

Качество: BDRip-AVC | BDRemux | Between.Worlds.2018.1080p.BluRay.REMUX.AVC.DTS-HD.MA.5.1-FGT
Формат: MKV
Видео кодек: MPEG-4 AVC
Аудио кодек: AC3
Видео: 1024x554 (1.85:1), 23,976 fps, x264 ~2 334 kbps avg, 0.172 bit/pixel
Аудио #1: 48 kHz, AC3 Dolby Digital, 3/2 (L,C,R,l,r) + LFE ch, ~384.00 kbps avg | RUS (iTunes)
Аудио #2: 48 kHz, AC3 Dolby Digital, 2 (L,R) ch, ~192.00 kbps avg | RUS (HDRezka Studio)
Аудио #3: 48 kHz, AC3 Dolby Digital, 3/2 (L,C,R,l,r) + LFE ch, ~448.00 kbps avg | ENG

Дата премьеры (мир): 22 сентября 2018
Дата премьеры (РФ):


Релиз от:

Общее
Уникальный идентификатор : 151342300926895835095827643433711164174 (0x71DB77881E66584D13D189C5B405DB0E)
Полное имя : F:OlLanDGroupBetween.Worlds.2018.BDRip(AVC).OlLanDGroup.mkv
Формат : Matroska
Версия формата : Version 4 / Version 2
Размер файла : 2,12 Гбайт
Продолжительность : 1 ч. 30 м.
Общий поток : 3357 Кбит/сек
Название фильма : Between.Worlds.2018 #TorpedoUK#
Дата кодирования : UTC 2019-08-19 01:08:51
Программа кодирования : mkvmerge v29.0.0 ('Like It Or Not') 64-bit
Библиотека кодирования : libebml v1.3.6 + libmatroska v1.4.9

Видео
Идентификатор : 1
Формат : AVC
Формат/Информация : Advanced Video Codec
Профиль формата : High@L4.1
Параметр CABAC формата : Да
Параметр ReFrames формата : 10 кадров
Идентификатор кодека : V_MPEG4/ISO/AVC
Продолжительность : 1 ч. 30 м.
Битрейт : 2334 Кбит/сек
Ширина : 1024 пикселя
Высота : 554 пикселя
Соотношение сторон : 1,85:1
Режим частоты кадров : Постоянный
Частота кадров : 23,976 (24000/1001) кадра/сек
Цветовое пространство : YUV
Субдискретизация насыщенности : 4:2:0
Битовая глубина : 8 бит
Тип развёртки : Прогрессивная
Бит/(Пиксели*Кадры) : 0.172
Размер потока : 1,47 Гбайт (69%)
Библиотека кодирования : x264 core 146 r2538 121396c
Настройки программы : cabac=1 / ref=10 / deblock=1:-3:-3 / analyse=0x3:0x113 / me=umh / subme=11 / psy=1 / psy_rd=1.00:0.03 / mixed_ref=1 / me_range=48 / chroma_me=1 / trellis=2 / 8x8dct=1 / cqm=0 / deadzone=21,11 / fast_pskip=1 / chroma_qp_offset=-3 / threads=6 / lookahead_threads=1 / sliced_threads=0 / nr=0 / decimate=1 / interlaced=0 / bluray_compat=0 / constrained_intra=0 / bframes=11 / b_pyramid=2 / b_adapt=2 / b_bias=0 / direct=3 / weightb=1 / open_gop=0 / weightp=2 / keyint=250 / keyint_min=23 / scenecut=40 / intra_refresh=0 / rc_lookahead=40 / rc=2pass / mbtree=0 / bitrate=2334 / ratetol=1.0 / qcomp=0.60 / qpmin=0 / qpmax=69 / qpstep=4 / cplxblur=20.0 / qblur=0.5 / vbv_maxrate=50000 / vbv_bufsize=62500 / nal_hrd=none / filler=0 / ip_ratio=1.40 / pb_ratio=1.30 / aq=1:1.00
Язык : English
Default : Да
Forced : Нет

Аудио #1
Идентификатор : 2
Формат : AC-3
Формат/Информация : Audio Coding 3
Расширение режима : CM (complete main)
Параметр Endianness формата : Big
Идентификатор кодека : A_AC3
Продолжительность : 1 ч. 30 м.
Вид битрейта : Постоянный
Битрейт : 384 Кбит/сек
Каналы : 6 каналов
Расположение каналов : Front: L C R, Side: L R, LFE
Частота : 48,0 КГц
Частота кадров : 31,250 кадров/сек (1536 spf)
Битовая глубина : 16 бит
Метод сжатия : С потерями
Размер потока : 248 Мбайт (11%)
Заголовок : MVO [iTunes]
Язык : Russian
Default : Да
Forced : Нет

Аудио #2
Идентификатор : 3
Формат : AC-3
Формат/Информация : Audio Coding 3
Расширение режима : CM (complete main)
Параметр Endianness формата : Big
Идентификатор кодека : A_AC3
Продолжительность : 1 ч. 30 м.
Вид битрейта : Постоянный
Битрейт : 192 Кбит/сек
Каналы : 2 канала
Расположение каналов : Front: L R
Частота : 48,0 КГц
Частота кадров : 31,250 кадров/сек (1536 spf)
Битовая глубина : 16 бит
Метод сжатия : С потерями
Размер потока : 124 Мбайт (6%)
Заголовок : MVO [HDRezka Studio]
Язык : Russian
Default : Нет
Forced : Нет

Аудио #3
Идентификатор : 4
Формат : AC-3
Формат/Информация : Audio Coding 3
Расширение режима : CM (complete main)
Параметр Endianness формата : Big
Идентификатор кодека : A_AC3
Продолжительность : 1 ч. 30 м.
Вид битрейта : Постоянный
Битрейт : 448 Кбит/сек
Каналы : 6 каналов
Расположение каналов : Front: L C R, Side: L R, LFE
Частота : 48,0 КГц
Частота кадров : 31,250 кадров/сек (1536 spf)
Битовая глубина : 16 бит
Метод сжатия : С потерями
Размер потока : 289 Мбайт (13%)
Заголовок : [Original]
Язык : English
Default : Нет
Forced : Нет

Текст #1
Идентификатор : 5
Формат : UTF-8
Идентификатор кодека : S_TEXT/UTF8
Идентификатор кодека/Информация : UTF-8 Plain Text
Продолжительность : 1 ч. 19 м.
Битрейт : 53 бит/сек
Count of elements : 960
Размер потока : 31,5 Кбайт (0%)
Заголовок : Full
Язык : English
Default : Нет
Forced : Нет

Текст #2
Идентификатор : 6
Формат : UTF-8
Идентификатор кодека : S_TEXT/UTF8
Идентификатор кодека/Информация : UTF-8 Plain Text
Продолжительность : 1 ч. 19 м.
Битрейт : 53 бит/сек
Count of elements : 1138
Размер потока : 31,4 Кбайт (0%)
Заголовок : SDH
Язык : English
Default : Нет
Forced : Нет

Меню
00:00:00.000 : en:Chapter 01
00:05:35.043 : en:Chapter 02
00:14:21.151 : en:Chapter 03
00:21:00.342 : en:Chapter 04
00:28:20.740 : en:Chapter 05
00:37:01.844 : en:Chapter 06
00:45:21.218 : en:Chapter 07
00:54:06.409 : en:Chapter 08
01:00:20.283 : en:Chapter 09
01:06:12.468 : en:Chapter 10
01:12:46.153 : en:Chapter 11
01:22:57.722 : en:Chapter 12





У вас нет необходимых прав для просмотра вложений в этом сообщении.


Вернуться к началу
 Профиль  
Ответить с цитатой  
  • Торрент
Автор: Admin Хэш: ---
Добавлен: 2019-08-20 23:28 Приватный: Нет (DHT включён)
Статус: Проверен
Размер: 2.12 ГБ (2 273 207 694 байт)
Изменил:
---
Скачали: 0 (Раздающих: 0%)
Причина:
---
Здоровье: 0%
Сидеров: 0 Личеров: 0
Скорость раздачи: 0 байт/сек Скорость скачивания: 0 байт/сек
Последний сидер: Нет Последний личер: Нет
Для скачивания торрента необходимо зарегистрироваться или войти на трекер.
Показать сообщения за:  Поле сортировки  
Начать новую тему Ответить на тему  [ 1 сообщение ] 

Часовой пояс: UTC + 3 часа


Кто сейчас на конференции

Сейчас этот форум просматривают: нет зарегистрированных пользователей и гости: 2


Вы не можете начинать темы
Вы не можете отвечать на сообщения
Вы не можете редактировать свои сообщения
Вы не можете удалять свои сообщения
Вы не можете добавлять вложения

Найти:
Перейти:  
cron
cron