Часовой пояс: UTC + 3 часа




Начать новую тему Ответить на тему  [ 1 сообщение ] 
Автор Сообщение
СообщениеДобавлено: 2019-08-21 22:03 
Не в сети
Администратор
Администратор
Аватара пользователя
Раздал: 80 КБ
Скачал: 0 байт
Ратио: Seed.


Зарегистрирован: 2010-01-16 12:34
Сообщения: 306
Золотая перчатка / Der goldene Handschuh


#777

Информация о фильме
Название: Золотая перчатка
Оригинальное название: Der goldene Handschuh
Год выпуска: 2019
Страна: Германия, Франция
Студия: Bombero International, Pathe, Warner Bros. Film Productions Germany
Продолжительность: 01:49:57
Перевод: Дублированный | iTunes
Жанр: Триллер

Режиссер: Фатих Акин

В ролях:
Йонас Дасслер, Катя Штудт, Маргарете Тизель, Адам Боусдукс, Мартина Эйтнер, Марк Хоземанн, Тристан Гёбель, Грета Софи Шмидт, Виктория Трауттмансдорфф, Харк Бом, Филипп Балтус

О фильме:
Западная Германия, 70-е годы. Фриц Хонка - типичный неудачник средних лет, так ничего и не достигший в жизни. Он коротает унылые вечера в кабаке «Золотая перчатка». Здесь, в компании себе подобных, он дурманит себя алкоголем и ищет близости с одинокими женщинами, безвозвратно утратившими свою молодость и достоинство. Фриц завлекает эти потерянные души в свое холостяцкое логово. В этом затхлом мирке в безобидном для окружающих уродце просыпается монстр.



Файл
Качество: WEB-DL 720p
Контейнер: MKV
Видео: MPEG-4 AVC, 1280x720, 24.000 fps, 3976 Kbps
Аудио 1: Russian: AC3, 48.0 KHz, 6 ch, 384 kbps - iTunes
Аудио 2: German: AC3, 48.0 KHz, 6 ch, 384 kbps - Original
Субтитры: Нет


General
Unique ID : 230385131877835505109431330225883024127 (0xAD528FFAEBFA0941B8E0476438D98AFF)
Complete name : Der.goldene.Handschuh.2019.WEB-DL.720p.mkv
Format : Matroska
Format version : Version 2
File size : 3.72 GiB
Duration : 1 h 49 min
Overall bit rate : 4 840 kb/s
Encoded date : UTC 2019-08-20 21:11:38
Writing application : mkvmerge v5.8.0 ('No Sleep / Pillow') built on Sep 2 2012 15:37:04
Writing library : libebml v1.2.3 + libmatroska v1.3.0

Video
ID : 1
Format : AVC
Format/Info : Advanced Video Codec
Format profile : High@L3.1
Format settings, CABAC : No
Format settings, RefFrames : 2 frames
Codec ID : V_MPEG4/ISO/AVC
Duration : 1 h 49 min
Bit rate : 3 976 kb/s
Width : 1 280 pixels
Height : 720 pixels
Display aspect ratio : 16:9
Frame rate mode : Constant
Frame rate : 24.000 FPS
Color space : YUV
Chroma subsampling : 4:2:0
Bit depth : 8 bits
Scan type : Progressive
Bits/(Pixel*Frame) : 0.180
Stream size : 3.05 GiB (82%)
Language : German
Default : Yes
Forced : No
Color range : Limited
Color primaries : BT.709
Transfer characteristics : BT.709
Matrix coefficients : BT.709

Audio #1
ID : 2
Format : AC-3
Format/Info : Audio Coding 3
Format settings, Endianness : Big
Codec ID : A_AC3
Duration : 1 h 49 min
Bit rate mode : Constant
Bit rate : 384 kb/s
Channel(s) : 6 channels
Channel positions : Front: L C R, Side: L R, LFE
Sampling rate : 48.0 kHz
Frame rate : 31.250 FPS (1536 SPF)
Bit depth : 16 bits
Compression mode : Lossy
Stream size : 302 MiB (8%)
Title : DUB, iTunes
Language : Russian
Service kind : Complete Main
Default : Yes
Forced : No

Audio #2
ID : 3
Format : AC-3
Format/Info : Audio Coding 3
Format settings, Endianness : Big
Codec ID : A_AC3
Duration : 1 h 49 min
Bit rate mode : Constant
Bit rate : 384 kb/s
Channel(s) : 6 channels
Channel positions : Front: L C R, Side: L R, LFE
Sampling rate : 48.0 kHz
Frame rate : 31.250 FPS (1536 SPF)
Bit depth : 16 bits
Compression mode : Lossy
Stream size : 302 MiB (8%)
Title : Original
Language : German
Service kind : Complete Main
Default : No
Forced : No

Menu
00:00:00.000 : en:Глава 1
00:07:41.791 : en:Глава 2
00:14:11.166 : en:Глава 3
00:20:03.666 : en:Глава 4
00:26:25.666 : en:Глава 5
00:32:19.082 : en:Глава 6
00:40:19.457 : en:Глава 7
00:47:09.123 : en:Глава 8
00:54:59.664 : en:Глава 9
01:02:10.664 : en:Глава 10
01:08:09.414 : en:Глава 11
01:16:12.955 : en:Глава 12
01:24:12.496 : en:Глава 13
01:33:23.371 : en:Глава 14
01:40:54.621 : en:Глава 15


У вас нет необходимых прав для просмотра вложений в этом сообщении.


Вернуться к началу
 Профиль  
Ответить с цитатой  
  • Торрент
Автор: Admin Хэш: ---
Добавлен: 2019-08-21 22:03 Приватный: Нет (DHT включён)
Статус: Проверен
Размер: 3.72 ГБ (3 991 610 887 байт)
Изменил:
---
Скачали: 0 (Раздающих: 0%)
Причина:
---
Здоровье: 0%
Сидеров: 0 Личеров: 0
Скорость раздачи: 0 байт/сек Скорость скачивания: 0 байт/сек
Последний сидер: Нет Последний личер: Нет
Для скачивания торрента необходимо зарегистрироваться или войти на трекер.
Показать сообщения за:  Поле сортировки  
Начать новую тему Ответить на тему  [ 1 сообщение ] 

Часовой пояс: UTC + 3 часа


Кто сейчас на конференции

Сейчас этот форум просматривают: нет зарегистрированных пользователей и гости: 1


Вы не можете начинать темы
Вы не можете отвечать на сообщения
Вы не можете редактировать свои сообщения
Вы не можете удалять свои сообщения
Вы не можете добавлять вложения

Найти:
Перейти:  
cron
cron