Часовой пояс: UTC + 3 часа




Начать новую тему Ответить на тему  [ 1 сообщение ] 
Автор Сообщение
СообщениеДобавлено: 2019-08-26 19:19 
Не в сети
Администратор
Администратор
Аватара пользователя
Раздал: 80 КБ
Скачал: 0 байт
Ратио: Seed.


Зарегистрирован: 2010-01-16 12:34
Сообщения: 306
Видок: Охотник на призраков / Видок: Император Парижа / L'Empereur de Paris


#777

Информация о фильме
Название: Видок: Охотник на призраков / Видок: Император Парижа
Оригинальное название: L'Empereur de Paris (The Emperor of Paris)
Год выхода: 2018
Страна: Франция
Студия: Mandarin Films, Gaumont, France 2 Cinéma
Продолжительность: 02:00:05
Перевод: Дублированный, Профессиональный многоголосый
Жанр: Приключения, история

Режиссер: Жан-Франсуа Рише

В ролях:
Ольга Куриленко, Венсан Кассель, Фрейя Мавор, Аугуст Диль, Дени Меноше, Дени Лаван, Фабрис Лукини, Уилльям Скьортино, Джеймс Тьерре, Патрик Шене

О фильме:
Эжен-Франсуа Видок сбегал из французских тюрем так часто, что стал настоящей легендой, однако после очередного побега он решил затаиться и пожить жизнью обычного торговца. Вот только спустя некоторое время неприятности вновь настигают его. Обвиненный в убийстве, которого не совершал, Видок заключает сделку с властями. Он обязуется использовать свои знания о криминальном мире Парижа для поисков и поимки самых опасных преступников французской столицы. Но несмотря на потрясающие результаты, которых достигает Видок в кратчайшие сроки, против него ополчаются стражи порядка. А лидеры криминального мира объявляют за его голову награду.



Файл
Кодек: x.264
Качество: BDRip 1080p
Видео: MPEG-4 AVC, 9100 Kбит/с, 1920x800, 23.976 кадр/с
Аудио #1: Русский (АС3, 6 ch, 384 Кбит/с, 48.0 KHz) Профессиональный (полное дублирование) iTunes
Аудио #2: Русский (АС3, 2 ch, 192 Кбит/с, 48.0 KHz) Профессиональный (многоголосый, закадровый) HDRezka Studio
Аудио #3: Французский (DTS, 6 ch, 1509 Кбит/с, 48.0 KHz)
Субтитры: английские (*srt), французские (*srt, *pgs)
Трейлер
General
Unique ID : 236696668423656938254463080513322060741 (0xB2121EC1D9056DFDA44D2946AE6F8BC5)
Complete name : The.Emperor.of.Paris..2018.BDRip.1080p.mkv
Format : Matroska
Format version : Version 4
File size : 9.39 GiB
Duration : 2 h 0 min
Overall bit rate : 11.2 Mb/s
Movie name : The Emperor of Paris (2018) #TorpedoUK#
Encoded date : UTC 2019-08-25 13:59:17
Writing application : mkvmerge v7.1.0 ('Good Love') 64bit built on Jul 27 2014 13:06:55
Writing library : libebml v1.3.0 + libmatroska v1.4.1

Video
ID : 1
Format : AVC
Format/Info : Advanced Video Codec
Format profile : High@L4.1
Format settings : CABAC / 5 Ref Frames
Format settings, CABAC : Yes
Format settings, Reference fra : 5 frames
Codec ID : V_MPEG4/ISO/AVC
Duration : 2 h 0 min
Bit rate : 9 100 kb/s
Width : 1 920 pixels
Height : 800 pixels
Display aspect ratio : 2.40:1
Frame rate mode : Constant
Frame rate : 23.976 (24000/1001) FPS
Color space : YUV
Chroma subsampling : 4:2:0
Bit depth : 8 bits
Scan type : Progressive
Bits/(Pixel*Frame) : 0.247
Stream size : 7.63 GiB (81%)
Writing library : x264 core 148 r2638 7599210
Encoding settings : cabac=1 / ref=5 / deblock=1:-3:-3 / analyse=0x3:0x133 / me=umh / subme=10 / psy=1 / psy_rd=1.00:0.20 / mixed_ref=1 / me_range=48 / chroma_me=1 / trellis=2 / 8x8dct=1 / cqm=0 / deadzone=21,11 / fast_pskip=1 / chroma_qp_offset=-3 / threads=6 / lookahead_threads=1 / sliced_threads=0 / nr=0 / decimate=1 / interlaced=0 / bluray_compat=0 / constrained_intra=0 / bframes=10 / b_pyramid=2 / b_adapt=2 / b_bias=0 / direct=3 / weightb=1 / open_gop=0 / weightp=2 / keyint=250 / keyint_min=23 / scenecut=40 / intra_refresh=0 / rc_lookahead=60 / rc=2pass / mbtree=1 / bitrate=9100 / ratetol=1.0 / qcomp=0.60 / qpmin=0 / qpmax=69 / qpstep=4 / cplxblur=20.0 / qblur=0.5 / ip_ratio=1.40 / aq=1:1.00
Language : French
Default : Yes
Forced : No

Audio #1
ID : 2
Format : AC-3
Format/Info : Audio Coding 3
Commercial name : Dolby Digital
Codec ID : A_AC3
Duration : 2 h 0 min
Bit rate mode : Constant
Bit rate : 384 kb/s
Channel(s) : 6 channels
Channel layout : L R C LFE Ls Rs
Sampling rate : 48.0 kHz
Frame rate : 31.250 FPS (1536 SPF)
Bit depth : 16 bits
Compression mode : Lossy
Stream size : 330 MiB (3%)
Title : DUB | iTunes
Language : Russian
Service kind : Complete Main
Default : Yes
Forced : No

Audio #2
ID : 3
Format : AC-3
Format/Info : Audio Coding 3
Commercial name : Dolby Digital
Codec ID : A_AC3
Duration : 2 h 0 min
Bit rate mode : Constant
Bit rate : 192 kb/s
Channel(s) : 2 channels
Channel layout : L R
Sampling rate : 48.0 kHz
Frame rate : 31.250 FPS (1536 SPF)
Bit depth : 16 bits
Compression mode : Lossy
Stream size : 165 MiB (2%)
Title : MVO | HDRezka Studio
Language : Russian
Service kind : Complete Main
Default : No
Forced : No

Audio #3
ID : 4
Format : DTS
Format/Info : Digital Theater Systems
Codec ID : A_DTS
Duration : 2 h 0 min
Bit rate mode : Constant
Bit rate : 1 509 kb/s
Channel(s) : 6 channels
Channel layout : C L R Ls Rs LFE
Sampling rate : 48.0 kHz
Frame rate : 93.750 FPS (512 SPF)
Bit depth : 24 bits
Compression mode : Lossy
Stream size : 1.27 GiB (13%)
Language : French
Default : No
Forced : No

Text #1
ID : 5
Format : UTF-8
Codec ID : S_TEXT/UTF8
Codec ID/Info : UTF-8 Plain Text
Duration : 1 h 51 min
Bit rate : 37 b/s
Count of elements : 1075
Stream size : 31.1 KiB (0%)
Language : English
Default : No
Forced : No

Text #2
ID : 6
Format : UTF-8
Codec ID : S_TEXT/UTF8
Codec ID/Info : UTF-8 Plain Text
Duration : 1 h 59 min
Bit rate : 41 b/s
Count of elements : 1410
Stream size : 36.6 KiB (0%)
Title : SDH
Language : French
Default : No
Forced : No

Text #3
ID : 7
Format : PGS
Muxing mode : zlib
Codec ID : S_HDMV/PGS
Codec ID/Info : Picture based subtitle format used on BDs/HD-DVDs
Duration : 1 h 59 min
Bit rate : 7 369 b/s
Count of elements : 2818
Stream size : 6.27 MiB (0%)
Language : French
Default : No
Forced : No

Menu
00:00:00.000 : en:Chapter 1
00:10:12.821 : en:Chapter 2
00:19:20.493 : en:Chapter 3
00:30:27.325 : en:Chapter 4
00:41:02.293 : en:Chapter 5
00:54:33.020 : en:Chapter 6
01:06:07.338 : en:Chapter 7
01:15:48.335 : en:Chapter 8
01:23:11.778 : en:Chapter 9
01:32:59.240 : en:Chapter 10
01:42:15.504 : en:Chapter 11
01:54:05.213 : en:Chapter 12


У вас нет необходимых прав для просмотра вложений в этом сообщении.


Вернуться к началу
 Профиль  
Ответить с цитатой  
  • Торрент
Автор: Admin Хэш: ---
Добавлен: 2019-08-26 19:19 Приватный: Нет (DHT включён)
Статус: Проверен
Размер: 9.39 ГБ (10 078 013 904 байт)
Изменил:
---
Скачали: 0 (Раздающих: 0%)
Причина:
---
Здоровье: 0%
Сидеров: 0 Личеров: 0
Скорость раздачи: 0 байт/сек Скорость скачивания: 0 байт/сек
Последний сидер: Нет Последний личер: Нет
Для скачивания торрента необходимо зарегистрироваться или войти на трекер.
Показать сообщения за:  Поле сортировки  
Начать новую тему Ответить на тему  [ 1 сообщение ] 

Часовой пояс: UTC + 3 часа


Кто сейчас на конференции

Сейчас этот форум просматривают: нет зарегистрированных пользователей и гости: 1


Вы не можете начинать темы
Вы не можете отвечать на сообщения
Вы не можете редактировать свои сообщения
Вы не можете удалять свои сообщения
Вы не можете добавлять вложения

Найти:
Перейти:  
cron
cron