Часовой пояс: UTC + 3 часа




Начать новую тему Ответить на тему  [ 1 сообщение ] 
Автор Сообщение
СообщениеДобавлено: 2019-08-26 23:28 
Не в сети
Администратор
Администратор
Аватара пользователя
Раздал: 80 КБ
Скачал: 0 байт
Ратио: Seed.


Зарегистрирован: 2010-01-16 12:34
Сообщения: 303
Игра Ганнибала / Night Hunter / Nomis


#777

Информация о фильме
Название: Игра Ганнибала
Оригинальное название: Nomis (Night Hunter)
Год выхода: 2018
Страна: Канада, США
Продолжительность: 01:38:47
Перевод: Профессиональный (многоголосый, закадровый) [HDRezka Studio]
Жанр: Боевик, триллер

Режиссер: Дэвид Рэймонд

В ролях:
Александра Даддарио, Генри Кавилл, Минка Келли, Нэйтан Филлион, Бен Кингсли, Стэнли Туччи, Элиана Джонс, Сара Томпсон, Эмма Тремблей, Брендан Флетчер

О фильме:
Детектив Маршалл арестовывает обвиняемого в похищениях и убийствах девушек — Саймона. Преступник страдает диссоциативным расстройством: в нем уживается несколько личностей, и одна из них — личность Ганнибала Лектера. Но даже после ареста преступления продолжаются, а все улики указывают на находящегося в тюрьме Саймона. Создается ощущение, что выдуманные им личности реально существуют и ведут с детективами и жертвами собственную игру.



Файл
Кодек: x.264
Качество: WEB-DL 1080p (Nomis.2018.1080p.WEB-DL.DD5.1.H264-FGT)
Видео: AVC, 1920x804 (2.40:1), 23.976 fps, 4 563 kb/s
Аудио 1: AC-3, 48.0 kHz, 2 ch, 192 kb/s | RUS
Аудио 2: AC-3, 48.0 kHz, 6 ch, 384 kb/s | ENG
Субтитры: Русские (форс.)

General
Unique ID : 153074079900580239491503155283174203899 (0x7328FED3C7A9106C03FA249B78A1A1FB)
Complete name : Nomis.2018.WEB-DL.1080p.mkv
Format : Matroska
Format version : Version 4 / Version 2
File size : 3.55 GiB
Duration : 1 h 38 min
Overall bit rate : 5 141 kb/s
Encoded date : UTC 2019-08-15 23:30:23
Writing application : mkvmerge v20.0.0 ('I Am The Sun') 64-bit
Writing library : libebml v1.3.5 + libmatroska v1.4.8

Video
ID : 1
Format : AVC
Format/Info : Advanced Video Codec
Format profile : High@L4
Format settings : CABAC / 5 Ref Frames
Format settings, CABAC : Yes
Format settings, RefFrames : 5 frames
Codec ID : V_MPEG4/ISO/AVC
Duration : 1 h 38 min
Bit rate : 4 563 kb/s
Width : 1 920 pixels
Height : 804 pixels
Display aspect ratio : 2.40:1
Frame rate mode : Constant
Frame rate : 23.976 FPS
Color space : YUV
Chroma subsampling : 4:2:0
Bit depth : 8 bits
Scan type : Progressive
Bits/(Pixel*Frame) : 0.123
Stream size : 3.15 GiB (89%)
Language : English
Default : Yes
Forced : No
Color range : Limited
Color primaries : BT.709
Transfer characteristics : BT.709
Matrix coefficients : BT.709

Audio #1
ID : 2
Format : AC-3
Format/Info : Audio Coding 3
Codec ID : A_AC3
Duration : 1 h 38 min
Bit rate mode : Constant
Bit rate : 192 kb/s
Channel(s) : 2 channels
Channel positions : Front: L R
Sampling rate : 48.0 kHz
Frame rate : 31.250 FPS (1536 SPF)
Bit depth : 16 bits
Compression mode : Lossy
Stream size : 136 MiB (4%)
Title : MVO HDRezka Studio
Language : Russian
Default : Yes
Forced : No

Audio #2
ID : 3
Format : AC-3
Format/Info : Audio Coding 3
Codec ID : A_AC3
Duration : 1 h 38 min
Bit rate mode : Constant
Bit rate : 384 kb/s
Channel(s) : 6 channels
Channel positions : Front: L C R, Side: L R, LFE
Sampling rate : 48.0 kHz
Frame rate : 31.250 FPS (1536 SPF)
Bit depth : 16 bits
Compression mode : Lossy
Stream size : 271 MiB (7%)
Language : English
Default : No
Forced : No

Text
ID : 4
Format : UTF-8
Codec ID : S_TEXT/UTF8
Codec ID/Info : UTF-8 Plain Text
Duration : 1 h 1 min
Bit rate : 1 b/s
Count of elements : 12
Stream size : 490 Bytes (0%)
Title : forced
Language : Russian
Default : Yes
Forced : Yes

Menu
00:00:00.000 : en:1
00:07:47.634 : en:2
00:16:03.796 : en:3
00:25:38.162 : en:4
00:33:47.192 : en:5
00:43:34.237 : en:6
00:52:52.253 : en:7
01:01:22.095 : en:8
01:07:53.569 : en:9
01:16:04.850 : en:10
01:23:57.071 : en:11
01:31:25.685 : en:12


У вас нет необходимых прав для просмотра вложений в этом сообщении.


Вернуться к началу
 Профиль  
Ответить с цитатой  
  • Торрент
Автор: Admin Хэш: ---
Добавлен: 2019-08-26 23:28 Приватный: Нет (DHT включён)
Статус: Проверен
Размер: 3.55 ГБ (3 809 296 855 байт)
Изменил:
---
Скачали: 0 (Раздающих: 0%)
Причина:
---
Здоровье: 0%
Сидеров: 0 Личеров: 0
Скорость раздачи: 0 байт/сек Скорость скачивания: 0 байт/сек
Последний сидер: Нет Последний личер: Нет
Для скачивания торрента необходимо зарегистрироваться или войти на трекер.
Показать сообщения за:  Поле сортировки  
Начать новую тему Ответить на тему  [ 1 сообщение ] 

Часовой пояс: UTC + 3 часа


Кто сейчас на конференции

Сейчас этот форум просматривают: нет зарегистрированных пользователей и гости: 1


Вы не можете начинать темы
Вы не можете отвечать на сообщения
Вы не можете редактировать свои сообщения
Вы не можете удалять свои сообщения
Вы не можете добавлять вложения

Найти:
Перейти:  
cron
cron