Часовой пояс: UTC + 3 часа




Начать новую тему Ответить на тему  [ 1 сообщение ] 
Автор Сообщение
СообщениеДобавлено: 2019-09-06 18:34 
Не в сети
Администратор
Администратор
Аватара пользователя
Раздал: 1.21 ТБ
Скачал: 181.25 МБ
Ратио: 7017.229


Зарегистрирован: 2014-03-16 00:45
Сообщения: 2491
Как отмыть миллион / Падение американской империи / La chute de l'empire américain


#777

Информация о фильме
Название: Как отмыть миллион / Падение американской империи
Оригинальное название: La chute de l'empire américain
Год выхода: 2018
Страна: Канада
Студия: Cinémaginaire Inc.
Продолжительность: 02:07:17
Перевод: Профессиональный многоголосый | iTunes
Жанр: Комедия, криминал

Режиссер: Дени Аркан

В ролях:
Александр Ландри, Мари-Пьер Морен, Реми Жирар, Максим Рой, Эрик Брюно, Венсан Леклер, Жюльетт Госслен, Пьер Курци, Ян Инглэнд, Роз-Мари Перро, Клод Лего

О фильме:
Скромняга Пьер-Поль, обладатель ученой степени, вынужден подрабатывать курьером. В один прекрасный день, доставляя очередную посылку, он первым оказывается на месте преступления и становится обладателем миллионного куша. Искушение решить все житейские проблемы велико. И пока он размышляет вернуть или присвоить огромную сумму наличных, его начинают преследовать бандиты, а полиция не спускает с него глаз. Спасаясь и от тех, и от других, интеллектуал Пьер-Поль встречает роковую красотку...



Файл
Кодек: AVC
Качество: WEB-DL 1080p
Видео: MPEG-4 AVC, 4625 Kбит/с, 1912x800, 24.000 кадр/с
Звук: ► Без Рекламы!
Аудио #1: Русский (АС3, 6 ch, 384 Кбит/с, 48.0 KHz) Профессиональный (многоголосый, закадровый) iTunes
Аудио #2: Французский (АС3, 6 ch, 384 Кбит/с, 48.0 KHz)
Субтитры: нет
Источник: La.Chute.de.l.Empire.Americain.2019.FRENCH.1080p.WEB.H264-AKLHD
General
Unique ID : 226607114592607647994079192438028756989 (0xAA7AF158C0B354A491209D2FA941E7FD)
Complete name : La.Chute.de.l.Empire.Americain.2019.WEB-DL.1080p.mkv
Format : Matroska
Format version : Version 4
File size : 4.79 GiB
Duration : 2 h 7 min
Overall bit rate : 5 392 kb/s
Encoded date : UTC 2019-09-04 00:05:45
Writing application : mkvmerge v7.1.0 ('Good Love') 64bit built on Jul 27 2014 13:06:55
Writing library : libebml v1.3.0 + libmatroska v1.4.1

Video
ID : 1
Format : AVC
Format/Info : Advanced Video Codec
Format profile : High@L4
Format settings : CABAC / 5 Ref Frames
Format settings, CABAC : Yes
Format settings, Reference fra : 5 frames
Codec ID : V_MPEG4/ISO/AVC
Duration : 2 h 7 min
Bit rate : 4 625 kb/s
Width : 1 912 pixels
Height : 800 pixels
Display aspect ratio : 2.40:1
Frame rate mode : Constant
Frame rate : 24.000 FPS
Color space : YUV
Chroma subsampling : 4:2:0
Bit depth : 8 bits
Scan type : Progressive
Bits/(Pixel*Frame) : 0.126
Stream size : 4.11 GiB (86%)
Language : French
Default : Yes
Forced : No
Color range : Limited
Color primaries : BT.709
Transfer characteristics : BT.709
Matrix coefficients : BT.709

Audio #1
ID : 2
Format : AC-3
Format/Info : Audio Coding 3
Commercial name : Dolby Digital
Codec ID : A_AC3
Duration : 2 h 7 min
Bit rate mode : Constant
Bit rate : 384 kb/s
Channel(s) : 6 channels
Channel layout : L R C LFE Ls Rs
Sampling rate : 48.0 kHz
Frame rate : 31.250 FPS (1536 SPF)
Bit depth : 16 bits
Compression mode : Lossy
Stream size : 350 MiB (7%)
Language : Russian
Service kind : Complete Main
Default : Yes
Forced : No

Audio #2
ID : 3
Format : AC-3
Format/Info : Audio Coding 3
Commercial name : Dolby Digital
Codec ID : A_AC3
Duration : 2 h 7 min
Bit rate mode : Constant
Bit rate : 384 kb/s
Channel(s) : 6 channels
Channel layout : L R C LFE Ls Rs
Sampling rate : 48.0 kHz
Frame rate : 31.250 FPS (1536 SPF)
Bit depth : 16 bits
Compression mode : Lossy
Stream size : 349 MiB (7%)
Title : DD5.1 - VFQ
Language : French
Service kind : Complete Main
Default : No
Forced : No

Menu
00:00:00.000 : en:1
00:12:00.000 : en:2
00:24:00.000 : en:3
00:36:00.000 : en:4
00:48:00.000 : en:5
01:00:00.000 : en:6
01:12:00.000 : en:7
01:24:00.000 : en:8
01:36:00.000 : en:9
01:48:00.000 : en:10


У вас нет необходимых прав для просмотра вложений в этом сообщении.


Вернуться к началу
 Профиль  
Ответить с цитатой  
  • Торрент
Автор: Consultants Хэш: ---
Добавлен: 2019-09-06 18:34 Приватный: Нет (DHT включён)
Статус: Проверен
Размер: 4.79 ГБ (5 147 729 791 байт)
Изменил:
---
Скачали: 20253 (Раздающих: 100%)
Причина:
---
Здоровье: 100%
Сидеров: 502 Личеров: 12
Скорость раздачи: 0 байт/сек Скорость скачивания: 0 байт/сек
Последний сидер: 1 день 5 часов 36 минут 28 секунд назад Последний личер: 1 день 5 часов 36 минут 28 секунд назад
Для скачивания торрента необходимо зарегистрироваться или войти на трекер.
Показать сообщения за:  Поле сортировки  
Начать новую тему Ответить на тему  [ 1 сообщение ] 

Часовой пояс: UTC + 3 часа


Кто сейчас на конференции

Сейчас этот форум просматривают: нет зарегистрированных пользователей и гости: 2


Вы не можете начинать темы
Вы не можете отвечать на сообщения
Вы не можете редактировать свои сообщения
Вы не можете удалять свои сообщения
Вы не можете добавлять вложения

Найти:
Перейти:  
cron
cron