Часовой пояс: UTC + 3 часа




Начать новую тему Ответить на тему  [ 1 сообщение ] 
Автор Сообщение
СообщениеДобавлено: 2019-09-11 21:34 
Не в сети
Администратор
Администратор
Аватара пользователя
Раздал: 1.21 ТБ
Скачал: 181.25 МБ
Ратио: 7017.229


Зарегистрирован: 2014-03-16 00:45
Сообщения: 2462
Рикошет / Ricochet


#777

Информация о фильме
Название: Рикошет
Оригинальное название: Ricochet
Год выхода: 2011
Страна: США
Студия: Head First Productions, Howard Braunstein Films
Продолжительность: 01:29:18
Перевод: Профессиональный (многоголосый, закадровый)
Жанр: Триллер, драма, экранизация

Режиссер: Ник Гомез

В ролях:
Джули Бенц, Ник Гомес, Гэри Коул, Джон Корбетт, Гэри Граббс, Келли Овертон, Кадим Хардисон, Бо Брассо, Бриттни Элгер, Хааз Слейман

О фильме:
Экранизация одноименного романа Сандры Браун. После того, как судья оправдывает подсудимого, детектив Хатчер становится на путь правосудия. Спустя несколько недель после оправдания, Элиз Лэрд, жена судьи, сталкивается с грабителем и убивает его в доме...



Файл
Формат: Matroska
Качество: BDRip-AVC [исх.BDRemux 1080p.HDCLUB]
Видео: 1024x576 at 23.976 fps, x264, ~2133 kbps, 0.151 bpp
Аудио: AC3, 2 ch, ~192 kbps - | Русский | -
Субтитры: Нет

***Релиз от: -=DoMiNo=-

x264 info: frame I:1059 Avg QP:13.50 size: 77771
x264 info: frame P:27381 Avg QP:16.85 size: 26555
x264 info: frame B:100026 Avg QP:18.79 size: 6187
x264 info: consecutive B-frames: 2.2% 2.5% 8.3% 14.9% 13.9% 51.4% 3.7% 0.8% 0.8% 0.2% 0.1% 0.7% 0.5%

General
Format : Matroska
Format version : Version 4
File size : 1.45 GiB
Duration : 1 h 29 min
Overall bit rate : 2 326 kb/s
Movie name : Рикошет.(2011).BDRip-AVC.[-=DoMiNo=-]
Encoded date : UTC 2019-09-10 07:04:29
Writing application : mkvmerge v37.0.0 ('Leave It') 64-bit
Writing library : libebml v1.3.9 + libmatroska v1.5.2
Attachments : poster / poster

Video
ID : 1
Format : AVC
Format/Info : Advanced Video Codec
Format profile : High@L4.1
Format settings : CABAC / 12 Ref Frames
Format settings, CABAC : Yes
Format settings, Reference : 12 frames
Codec ID : V_MPEG4/ISO/AVC
Duration : 1 h 29 min
Bit rate : 2 133 kb/s
Width : 1 024 pixels
Height : 576 pixels
Display aspect ratio : 16:9
Frame rate mode : Constant
Frame rate : 23.976 (24000/1001) FPS
Color space : YUV
Chroma subsampling : 4:2:0
Bit depth : 8 bits
Scan type : Progressive
Bits/(Pixel*Frame) : 0.151
Stream size : 1.33 GiB (92%)
Title : RIP_BY_-=DoMiNo=-
Writing library : x264 core 157 r2958 57baac4
Encoding settings : cabac=1 / ref=12 / deblock=1:-2:-2 / analyse=0x3:0x133 / me=umh / subme=11 / psy=1 / psy_rd=1.00:0.15 / mixed_ref=1 / me_range=32 / chroma_me=1 / trellis=2 / 8x8dct=1 / cqm=0 / deadzone=21,11 / fast_pskip=0 / chroma_qp_offset=-3 / threads=6 / lookahead_threads=1 / sliced_threads=0 / nr=0 / decimate=0 / interlaced=0 / bluray_compat=0 / constrained_intra=0 / bframes=12 / b_pyramid=2 / b_adapt=2 / b_bias=0 / direct=3 / weightb=1 / open_gop=0 / weightp=2 / keyint=240 / keyint_min=24 / scenecut=40 / intra_refresh=0 / rc_lookahead=60 / rc=2pass / mbtree=0 / bitrate=2133 / ratetol=1.0 / qcomp=0.70 / qpmin=0 / qpmax=69 / qpstep=4 / cplxblur=20.0 / qblur=0.5 / vbv_maxrate=50000 / vbv_bufsize=62500 / nal_hrd=none / filler=0 / ip_ratio=1.40 / pb_ratio=1.30 / aq=3:0.80
Language : English
Default : Yes
Forced : No
Color range : Limited

Audio
ID : 2
Format : AC-3
Format/Info : Audio Coding 3
Commercial name : Dolby Digital
Codec ID : A_AC3
Duration : 1 h 29 min
Bit rate mode : Constant
Bit rate : 192 kb/s
Channel(s) : 2 channels
Channel layout : L R
Sampling rate : 48.0 kHz
Frame rate : 31.250 FPS (1536 SPF)
Bit depth : 16 bits
Compression mode : Lossy
Stream size : 123 MiB (8%)
Title : MVO
Language : Russian
Service kind : Complete Main
Default : Yes
Forced : No

Menu
00:00:00.000 : :Глава 1
00:04:47.536 : :Глава 2
00:14:07.930 : :Глава 3
00:26:41.850 : :Глава 4
00:37:14.273 : :Глава 5
00:49:57.285 : :Глава 6
01:02:39.130 : :Глава 7
01:16:20.826 : :Глава 8
01:28:35.268 : :Глава 9


У вас нет необходимых прав для просмотра вложений в этом сообщении.


Вернуться к началу
 Профиль  
Ответить с цитатой  
  • Торрент
Автор: Consultants Хэш: ---
Добавлен: 2019-09-11 21:34 Приватный: Нет (DHT включён)
Статус: Проверен
Размер: 1.45 ГБ (1 558 198 223 байт)
Изменил:
---
Скачали: 0 (Раздающих: 0%)
Причина:
---
Здоровье: 0%
Сидеров: 0 Личеров: 0
Скорость раздачи: 0 байт/сек Скорость скачивания: 0 байт/сек
Последний сидер: Нет Последний личер: Нет
Для скачивания торрента необходимо зарегистрироваться или войти на трекер.
Показать сообщения за:  Поле сортировки  
Начать новую тему Ответить на тему  [ 1 сообщение ] 

Часовой пояс: UTC + 3 часа


Кто сейчас на конференции

Сейчас этот форум просматривают: нет зарегистрированных пользователей и гости: 1


Вы не можете начинать темы
Вы не можете отвечать на сообщения
Вы не можете редактировать свои сообщения
Вы не можете удалять свои сообщения
Вы не можете добавлять вложения

Найти:
Перейти:  
cron
cron