Часовой пояс: UTC + 3 часа




Начать новую тему Ответить на тему  [ 1 сообщение ] 
Автор Сообщение
СообщениеДобавлено: 2019-12-12 15:06 
Не в сети
Администратор
Администратор
Аватара пользователя
Раздал: 1.24 ТБ
Скачал: 2.7 ГБ
Ратио: 470.569


Зарегистрирован: 2014-03-16 00:45
Сообщения: 2990
Комната желаний / The Room


#777

Информация о фильме
Название: Комната желаний
Оригинальное название: The Room
Год выхода: 2019
Страна: Франция, Люксембург, Бельгия
Студия: Bidibul Productions, Les Films du Poisson, Versus Production
Продолжительность: 01:35:13
Перевод: Дублированный | iTunes
Жанр: Фантастика, драма, детектив

Режиссер: Кристиан Волькман

В ролях:
Ольга Куриленко, Кевин Янссенс, Марианн Бург, Френсис Чепмен, Джон Фландерс, Эрик Жигу, Микаэль Кахья, Кэрол Уэйерс, Джошуа Уилсон

О фильме:
Влюбленная пара решает переехать в уединенный особняк. Занимаясь ремонтом старинного дома, они обнаруживают замурованную комнату, исполняющую любое их желание. Миллионы долларов, подлинник Ван Гога и самые роскошные наряды - чего бы они ни захотели, моментально материализуется. Однако, наигравшись вдоволь, молодая женщина осмеливается пожелать себе долгожданного ребенка, даже не подозревая, какую сделку совершает...



Качество: WEB-DL 1080p
Видео: MPEG-4 AVC, 1920x804, 4519 Kbit/s, 25 fps
Аудио #01: 48 kHz, AC3, 5.1, 384 Kbps | iTunes | RUS |
Аудио #02: 48 kHz, AAC, 2.0, 126 Kbps | iTunes | UKR |
Аудио #03: 48 kHz, AC3, 5.1, 384 Kbps | Оригинал | ENG |
Субтитры: Русские (Full)



General
Unique ID : 137709837124351484800361678901349148887 (0x6799F32C591ABB7A1D5CA504C3AB68D7)
Complete name : F:Video111The.Room.2019.WEB-DL.1080p.seleZen.mkv
Format : Matroska
Format version : Version 4
File size : 3.60 GiB
Duration : 1 h 35 min
Overall bit rate : 5 416 kb/s
Movie name : The Room 2019 from селезень
Encoded date : UTC 2019-12-11 19:35:47
Writing application : mkvmerge v40.0.0 ('Old Town Road + Pony') 64-bit
Writing library : libebml v1.3.9 + libmatroska v1.5.2
Cover : Yes
Attachments : cover.jpg

Video
ID : 1
Format : AVC
Format/Info : Advanced Video Codec
Format profile : High@L4
Format settings : CABAC / 5 Ref Frames
Format settings, CABAC : Yes
Format settings, Reference : 5 frames
Codec ID : V_MPEG4/ISO/AVC
Duration : 1 h 35 min
Bit rate : 4 519 kb/s
Width : 1 920 pixels
Height : 804 pixels
Display aspect ratio : 2.40:1
Frame rate mode : Constant
Frame rate : 25.000 FPS
Color space : YUV
Chroma subsampling : 4:2:0
Bit depth : 8 bits
Scan type : Progressive
Bits/(Pixel*Frame) : 0.117
Stream size : 3.01 GiB (83%)
Language : English
Default : Yes
Forced : No
Color range : Limited
Color primaries : BT.709
Transfer characteristics : BT.709
Matrix coefficients : BT.709

Audio #1
ID : 2
Format : AC-3
Format/Info : Audio Coding 3
Commercial name : Dolby Digital
Codec ID : A_AC3
Duration : 1 h 35 min
Bit rate mode : Constant
Bit rate : 384 kb/s
Channel(s) : 6 channels
Channel layout : L R C LFE Ls Rs
Sampling rate : 48.0 kHz
Frame rate : 31.250 FPS (1536 SPF)
Bit depth : 16 bits
Compression mode : Lossy
Delay relative to video : -40 ms
Stream size : 262 MiB (7%)
Title : iTunes
Language : Russian
Service kind : Complete Main
Default : Yes
Forced : Yes

Audio #2
ID : 3
Format : AAC LC
Format/Info : Advanced Audio Codec Low Complexity
Codec ID : A_AAC-2
Duration : 1 h 35 min
Bit rate : 126 kb/s
Channel(s) : 2 channels
Channel layout : L R
Sampling rate : 48.0 kHz
Frame rate : 46.875 FPS (1024 SPF)
Compression mode : Lossy
Delay relative to video : -40 ms
Stream size : 85.8 MiB (2%)
Title : iTunes
Language : Ukrainian
Default : No
Forced : No

Audio #3
ID : 4
Format : AC-3
Format/Info : Audio Coding 3
Commercial name : Dolby Digital
Codec ID : A_AC3
Duration : 1 h 35 min
Bit rate mode : Constant
Bit rate : 384 kb/s
Channel(s) : 6 channels
Channel layout : L R C LFE Ls Rs
Sampling rate : 48.0 kHz
Frame rate : 31.250 FPS (1536 SPF)
Bit depth : 16 bits
Compression mode : Lossy
Delay relative to video : -40 ms
Stream size : 262 MiB (7%)
Title : Original
Language : English
Service kind : Complete Main
Default : No
Forced : No

Text
ID : 5
Format : UTF-8
Codec ID : S_TEXT/UTF8
Codec ID/Info : UTF-8 Plain Text
Duration : 1 h 29 min
Bit rate : 37 b/s
Count of elements : 639
Stream size : 24.9 KiB (0%)
Title : Full
Language : Russian
Default : No
Forced : No

Menu
00:00:00.000 : en:Глава 1
00:06:35.640 : en:Глава 2
00:14:42.640 : en:Глава 3
00:21:47.760 : en:Глава 4
00:30:53.240 : en:Глава 5
00:36:02.880 : en:Глава 6
00:43:36.400 : en:Глава 7
00:50:59.599 : en:Глава 8
01:00:08.599 : en:Глава 9
01:10:54.799 : en:Глава 10
01:16:59.958 : en:Глава 11
01:29:33.518 : en:Глава 12


Релиз от:



У вас нет необходимых прав для просмотра вложений в этом сообщении.


Вернуться к началу
 Профиль  
Ответить с цитатой  
  • Торрент
Автор: Consultants Хэш: ---
Добавлен: 2019-12-12 15:06 Приватный: Нет (DHT включён)
Статус: Проверен
Размер: 3.6 ГБ (3 867 733 114 байт)
Изменил:
---
Скачали: 37487 (Раздающих: 0%)
Причина:
---
Здоровье: 100%
Сидеров: 142 Личеров: 2
Скорость раздачи: 0 байт/сек Скорость скачивания: 0 байт/сек
Последний сидер: 2 месяца 1 день 22 часа 11 минут 17 секунд назад Последний личер: 2 месяца 1 день 22 часа 11 минут 17 секунд назад
Для скачивания торрента необходимо зарегистрироваться или войти на трекер.
Показать сообщения за:  Поле сортировки  
Начать новую тему Ответить на тему  [ 1 сообщение ] 

Часовой пояс: UTC + 3 часа


Кто сейчас на конференции

Сейчас этот форум просматривают: нет зарегистрированных пользователей и гости: 2


Вы не можете начинать темы
Вы не можете отвечать на сообщения
Вы не можете редактировать свои сообщения
Вы не можете удалять свои сообщения
Вы не можете добавлять вложения

Найти:
Перейти:  
Переместиться наверх
 Главная |  Список форумов |   Time : 0.089s | 15 Queries | GZIP : Off |