Часовой пояс: UTC + 3 часа




Начать новую тему Ответить на тему  [ 1 сообщение ] 
Автор Сообщение
СообщениеДобавлено: 2019-12-17 22:15 
Не в сети
Администратор
Администратор
Аватара пользователя
Раздал: 80 КБ
Скачал: 0 байт
Ратио: Seed.


Зарегистрирован: 2010-01-16 12:34
Сообщения: 483
Райские холмы / Paradise Hills


#777

Информация о фильме
Название: Райские холмы
Оригинальное название: Paradise Hills
Год выхода: 2019
Страна: Испания
Студия: Nostromo Pictures, Colina Paraiso AIE, Radio Televisión Española
Продолжительность: 01:34:50
Перевод: Дублированный | iTunes
Жанр: Фантастика, фэнтези, триллер

Режиссер: Элис Вэддингтон

В ролях:
Эйса Гонсалес, Аквафина, Милла Йовович, Эмма Робертс, Джереми Ирвин, Даниэль МакДональд, Лилиана Кабаль, Арно Валуа, Хантер Тремейн, Дэниэл Хорват, Джои Сордил, Нэнси Джек

О фильме:
Добро пожаловать в дивный новый мир. Здесь создан высокотехнологичный остров, имя которому «Райские холмы». Богатые семьи отправляют сюда «несовершенных» дочерей, чтобы преобразить их по своему подобию. Ведь если ты принадлежишь к высшему обществу, даже в далеком будущем брак по любви - непозволительная роскошь. Красота, покорность и непорочность - вот путь к новой жизни. И тебя ждет прекрасное будущее, но только если ты готова подчиняться правилам...



Файл
Кодек: AVC
Качество: WEB-DL 720p | Paradise.Hills.2019.720p.AMZN.WEB-DL.DDP5.1.H.264-NTG
Видео: MPEG-4 AVC, 3482 Kбит/с, 1280x720, 23.976 кадр/с
Аудио #1: Русский (АС3, 6 ch, 384 Кбит/с, 48.0 KHz) Профессиональный (дублированный) iTunes
Аудио #2: Английский (АС3, 6 ch, 640 Кбит/с, 48.0 KHz)
Субтитры: Русские (Full), английские
Источник: Paradise.Hills.2019.720p.AMZN.WEB-DL.DDP5.1.H.264-NTG
General
Unique ID : 188171650305386298426662177147851304089 (0x8D908AA659738E338CB350F6E8B6EC99)
Complete name : Paradise.Hills.2019.AMZN.WEB-DL.720p.mkv
Format : Matroska
Format version : Version 4
File size : 2.98 GiB
Duration : 1 h 34 min
Overall bit rate : 4 506 kb/s
Encoded date : UTC 2019-12-17 09:47:37
Writing application : mkvmerge v7.1.0 ('Good Love') 64bit built on Jul 27 2014 13:06:55
Writing library : libebml v1.3.0 + libmatroska v1.4.1

Video
ID : 1
Format : AVC
Format/Info : Advanced Video Codec
Format profile : High@L3.1
Format settings : CABAC / 4 Ref Frames
Format settings, CABAC : Yes
Format settings, Reference fra : 4 frames
Codec ID : V_MPEG4/ISO/AVC
Duration : 1 h 34 min
Bit rate mode : Constant
Bit rate : 3 482 kb/s
Nominal bit rate : 6 000 kb/s
Width : 1 280 pixels
Height : 720 pixels
Display aspect ratio : 16:9
Frame rate mode : Constant
Frame rate : 23.976 (24000/1001) FPS
Color space : YUV
Chroma subsampling : 4:2:0
Bit depth : 8 bits
Scan type : Progressive
Bits/(Pixel*Frame) : 0.158
Stream size : 2.31 GiB (77%)
Language : English
Default : Yes
Forced : No
Color range : Limited
Color primaries : BT.709
Transfer characteristics : BT.709
Matrix coefficients : BT.709

Audio #1
ID : 2
Format : AC-3
Format/Info : Audio Coding 3
Commercial name : Dolby Digital
Codec ID : A_AC3
Duration : 1 h 34 min
Bit rate mode : Constant
Bit rate : 384 kb/s
Channel(s) : 6 channels
Channel layout : L R C LFE Ls Rs
Sampling rate : 48.0 kHz
Frame rate : 31.250 FPS (1536 SPF)
Compression mode : Lossy
Stream size : 260 MiB (9%)
Title : DUB | iTunes
Language : Russian
Service kind : Complete Main
Default : Yes
Forced : No

Audio #2
ID : 3
Format : AC-3
Format/Info : Audio Coding 3
Commercial name : Dolby Digital
Codec ID : A_AC3
Duration : 1 h 34 min
Bit rate mode : Constant
Bit rate : 640 kb/s
Channel(s) : 6 channels
Channel layout : L R C LFE Ls Rs
Sampling rate : 48.0 kHz
Frame rate : 31.250 FPS (1536 SPF)
Compression mode : Lossy
Stream size : 434 MiB (14%)
Language : English
Service kind : Complete Main
Default : No
Forced : No

Text #1
ID : 4
Format : UTF-8
Codec ID : S_TEXT/UTF8
Codec ID/Info : UTF-8 Plain Text
Duration : 1 h 28 min
Bit rate : 65 b/s
Count of elements : 766
Stream size : 42.7 KiB (0%)
Title : Full
Language : Russian
Default : No
Forced : No

Text #2
ID : 5
Format : UTF-8
Codec ID : S_TEXT/UTF8
Codec ID/Info : UTF-8 Plain Text
Duration : 1 h 28 min
Bit rate : 41 b/s
Count of elements : 993
Stream size : 26.5 KiB (0%)
Language : English
Default : No
Forced : No

Text #3
ID : 6
Format : UTF-8
Codec ID : S_TEXT/UTF8
Codec ID/Info : UTF-8 Plain Text
Duration : 1 h 28 min
Bit rate : 50 b/s
Count of elements : 1175
Stream size : 32.7 KiB (0%)
Title : SDH
Language : English
Default : No
Forced : No


У вас нет необходимых прав для просмотра вложений в этом сообщении.


Вернуться к началу
 Профиль  
Ответить с цитатой  
  • Торрент
Автор: Admin Хэш: ---
Добавлен: 2019-12-17 22:15 Приватный: Нет (DHT включён)
Статус: Проверен
Размер: 2.98 ГБ (3 204 938 299 байт)
Изменил:
---
Скачали: 1162 (Раздающих: 0%)
Причина:
---
Здоровье: 100%
Сидеров: 75 Личеров: 3
Скорость раздачи: 0 байт/сек Скорость скачивания: 0 байт/сек
Последний сидер: 3 дня 1 час 46 минут 8 секунд назад Последний личер: 3 дня 1 час 46 минут 8 секунд назад
Для скачивания торрента необходимо зарегистрироваться или войти на трекер.
Показать сообщения за:  Поле сортировки  
Начать новую тему Ответить на тему  [ 1 сообщение ] 

Часовой пояс: UTC + 3 часа


Кто сейчас на конференции

Сейчас этот форум просматривают: нет зарегистрированных пользователей и гости: 3


Вы не можете начинать темы
Вы не можете отвечать на сообщения
Вы не можете редактировать свои сообщения
Вы не можете удалять свои сообщения
Вы не можете добавлять вложения

Найти:
Перейти:  
cron