Часовой пояс: UTC + 3 часа




Начать новую тему Ответить на тему  [ 1 сообщение ] 
Автор Сообщение
СообщениеДобавлено: 2019-12-19 18:43 
Не в сети
Администратор
Администратор
Аватара пользователя
Раздал: 80 КБ
Скачал: 0 байт
Ратио: Seed.


Зарегистрирован: 2010-01-16 12:34
Сообщения: 483
Последний бросок / Лазарат / Lazarat


#777

Информация о фильме
Название: Последний бросок / Лазарат
Оригинальное название: Lazarat
Год выпуска: 2019
Страна: США
Студия: Hollywood Media Bridge, Mercury Films
Продолжительность: 01:42:56
Перевод: Дублированный | iTunes
Жанр: Боевик, триллер, криминал

Режиссер: Уильям Кауфман

В ролях:
Равшана Куркова, Гоша Куценко, Иван Макаревич, Игорь Жижикин, Луис Мэндилор, Арманд Ассанте, Радослав Парванов, Салим Заруи, Марко Балсамо, Иса Заруи

О фильме:
Современная Албания. Жители небольшого городка живут производством наркотиков, которые потом расходятся по Европе. Бороться с ними практически невозможно, ведь крышует их местная полиция, которая давно и прочно кормится за счет наркодилеров. Это мир обмана и опасности, которые подстерегают людей на каждом шагу.



Файл
Качество: WEB-DL 1080p
Контейнер: MKV
Видео: MPEG-4 AVC, 1920x800, 4486 Kbps, 24.000 fps
Аудио: Russian: AC3, 6 ch, 48 kHz, 384 kbps - DUB, iTunes
Субтитры: Нет


General
Unique ID : 251865182249152096752663777359392076822 (0xBD7B783A9A81958095212E45C642F416)
Complete name : Posledniy.brosok.2019.WEB-DL.1080p.mkv
Format : Matroska
Format version : Version 4 / Version 2
File size : 3.50 GiB
Duration : 1 h 42 min
Overall bit rate : 4 872 kb/s
Encoded date : UTC 2019-12-19 12:41:42
Writing application : mkvmerge v7.8.0 ('River Man') 32bit built on Apr 3 2015 12:11:22
Writing library : libebml v1.3.1 + libmatroska v1.4.2

Video
ID : 1
Format : AVC
Format/Info : Advanced Video Codec
Format profile : High@L4
Format settings, CABAC : Yes
Format settings, RefFrames : 5 frames
Codec ID : V_MPEG4/ISO/AVC
Duration : 1 h 42 min
Bit rate : 4 486 kb/s
Width : 1 920 pixels
Height : 800 pixels
Display aspect ratio : 2.40:1
Frame rate mode : Constant
Frame rate : 24.000 FPS
Color space : YUV
Chroma subsampling : 4:2:0
Bit depth : 8 bits
Scan type : Progressive
Bits/(Pixel*Frame) : 0.122
Stream size : 3.23 GiB (92%)
Language : Russian
Default : Yes
Forced : No
Color range : Limited
Color primaries : BT.709
Transfer characteristics : BT.709
Matrix coefficients : BT.709

Audio
ID : 2
Format : AC-3
Format/Info : Audio Coding 3
Format settings, Endianness : Big
Codec ID : A_AC3
Duration : 1 h 42 min
Bit rate mode : Constant
Bit rate : 384 kb/s
Channel(s) : 6 channels
Channel positions : Front: L C R, Side: L R, LFE
Sampling rate : 48.0 kHz
Frame rate : 31.250 FPS (1536 SPF)
Bit depth : 16 bits
Compression mode : Lossy
Stream size : 283 MiB (8%)
Title : iTunes
Language : Russian
Service kind : Complete Main
Default : Yes
Forced : No

Menu
00:00:00.000 : en:Глава 1
00:08:54.416 : en:Глава 2
00:17:48.624 : en:Глава 3
00:25:01.914 : en:Глава 4
00:33:36.164 : en:Глава 5
00:41:50.664 : en:Глава 6
00:49:46.247 : en:Глава 7
00:58:24.122 : en:Глава 8
01:07:21.122 : en:Глава 9
01:15:42.955 : en:Глава 10
01:24:30.121 : en:Глава 11
01:33:51.412 : en:Глава 12


У вас нет необходимых прав для просмотра вложений в этом сообщении.


Вернуться к началу
 Профиль  
Ответить с цитатой  
  • Торрент
Автор: Admin Хэш: ---
Добавлен: 2019-12-19 18:43 Приватный: Нет (DHT включён)
Статус: Проверен
Размер: 3.5 ГБ (3 761 432 171 байт)
Изменил:
---
Скачали: 0 (Раздающих: 0%)
Причина:
---
Здоровье: 0%
Сидеров: 0 Личеров: 0
Скорость раздачи: 0 байт/сек Скорость скачивания: 0 байт/сек
Последний сидер: Нет Последний личер: Нет
Для скачивания торрента необходимо зарегистрироваться или войти на трекер.
Показать сообщения за:  Поле сортировки  
Начать новую тему Ответить на тему  [ 1 сообщение ] 

Часовой пояс: UTC + 3 часа


Кто сейчас на конференции

Сейчас этот форум просматривают: нет зарегистрированных пользователей и гости: 5


Вы не можете начинать темы
Вы не можете отвечать на сообщения
Вы не можете редактировать свои сообщения
Вы не можете удалять свои сообщения
Вы не можете добавлять вложения

Найти:
Перейти:  
cron
cron