Часовой пояс: UTC + 3 часа




Начать новую тему Ответить на тему  [ 1 сообщение ] 
Автор Сообщение
СообщениеДобавлено: 2019-12-19 21:15 
Не в сети
Администратор
Администратор
Аватара пользователя
Раздал: 80 КБ
Скачал: 0 байт
Ратио: Seed.


Зарегистрирован: 2010-01-16 12:34
Сообщения: 483
Где-то во времени / The Fare


#777

Информация о фильме
Название: Где-то во времени
Оригинальное название: The Fare
Год выпуска: 2018
Страна: США
Студия: 501 Pictures, Grady Film, Public Displays of Affection
Продолжительность: 01:22:00
Перевод: Дублированный | iTunes
Жанр: Триллер, мелодрама, детектив, фантастика

Режиссер: Дэвид Хэмилтон

В ролях:
Джино Энтони Песи, Бринна Келли, Джейсон Стюарт, Джон Джейкобс, Мэтт Фонтана, Дж.К. Бэйкер, Джефф Блум, Стивен Джи, Дэвид Миделл, Сара Мур

О фильме:
Очаровательная пассажирка по имени Пенни садится в такси к Харрису. Машина движется по безлюдной темной трассе, и таксист начинает беседу с девушкой. Внезапно она исчезает с заднего сиденья автомобиля, не оставив и следа. Харрис сбрасывает счетчик километров... и перемещается во времени назад, в тот самый момент, когда таинственная пассажирка открывает дверь машины. Харрис и Пенни оказываются во временной ловушке, но эта бесконечная поездка снимет покров с тайн и изменит их жизни навсегда.



Файл
Качество: WEB-DL 1080p
Контейнер: MKV
Видео: MPEG-4 AVC, 1920x800, 4474 Kbps, 24.000 fps
Аудио: Russian: AC3, 6 ch, 48 kHz, 384 kbps - DUB, iTunes
Субтитры: Нет

General
Unique ID : 189296886380505017518804521424977491645 (0x8E694112548F05AE9DC62BE62BF176BD)
Complete name : The_FARE_2018_WEB-DL_1080p-BLUEBIRD.mkv
Format : Matroska
Format version : Version 4 / Version 2
File size : 2.84 GiB
Duration : 1 h 22 min
Overall bit rate : 4 956 kb/s
Encoded date : UTC 2019-12-18 19:12:44
Writing application : mkvmerge v6.9.1 ('Blue Panther') 32bit built on Apr 18 2014 18:15:44
Writing library : libebml v1.3.0 + libmatroska v1.4.1
Cover : Yes
Attachments : cover1.png

Video
ID : 1
Format : AVC
Format/Info : Advanced Video Codec
Format profile : High@L4
Format settings, CABAC : Yes
Format settings, RefFrames : 5 frames
Codec ID : V_MPEG4/ISO/AVC
Duration : 1 h 22 min
Bit rate : 4 474 kb/s
Width : 1 920 pixels
Height : 800 pixels
Display aspect ratio : 2.40:1
Frame rate mode : Constant
Frame rate : 24.000 FPS
Color space : YUV
Chroma subsampling : 4:2:0
Bit depth : 8 bits
Scan type : Progressive
Bits/(Pixel*Frame) : 0.121
Stream size : 2.56 GiB (90%)
Language : English
Default : Yes
Forced : No
Color range : Limited
Color primaries : BT.709
Transfer characteristics : BT.709
Matrix coefficients : BT.709

Audio
ID : 2
Format : AC-3
Format/Info : Audio Coding 3
Format settings, Endianness : Big
Codec ID : A_AC3
Duration : 1 h 22 min
Bit rate mode : Constant
Bit rate : 384 kb/s
Channel(s) : 6 channels
Channel positions : Front: L C R, Side: L R, LFE
Sampling rate : 48.0 kHz
Frame rate : 31.250 FPS (1536 SPF)
Bit depth : 16 bits
Compression mode : Lossy
Stream size : 225 MiB (8%)
Title : [DUB] DD 5.1 @ 384 kbps (iTunes)
Language : Russian
Service kind : Complete Main
Default : Yes
Forced : No

Menu
00:00:00.000 : en:Глава 1
00:04:47.250 : en:Глава 2
00:11:09.666 : en:Глава 3
00:18:30.374 : en:Глава 4
00:24:00.665 : en:Глава 5
00:32:20.623 : en:Глава 6
00:37:26.331 : en:Глава 7
00:44:19.289 : en:Глава 8
00:49:53.705 : en:Глава 9
00:53:27.205 : en:Глава 10
01:00:30.580 : en:Глава 11
01:09:28.246 : en:Глава 12
01:14:00.037 : en:Глава 13


Релиз от:


У вас нет необходимых прав для просмотра вложений в этом сообщении.


Вернуться к началу
 Профиль  
Ответить с цитатой  
  • Торрент
Автор: Admin Хэш: ---
Добавлен: 2019-12-19 21:15 Приватный: Нет (DHT включён)
Статус: Проверен
Размер: 2.84 ГБ (3 048 346 539 байт)
Изменил:
---
Скачали: 7090 (Раздающих: 100%)
Причина:
---
Здоровье: 100%
Сидеров: 919 Личеров: 106
Скорость раздачи: 0 байт/сек Скорость скачивания: 0 байт/сек
Последний сидер: 9 часов 11 минут 9 секунд назад Последний личер: 3 дня 2 часа 31 минуту 20 секунд назад
Для скачивания торрента необходимо зарегистрироваться или войти на трекер.
Показать сообщения за:  Поле сортировки  
Начать новую тему Ответить на тему  [ 1 сообщение ] 

Часовой пояс: UTC + 3 часа


Кто сейчас на конференции

Сейчас этот форум просматривают: нет зарегистрированных пользователей и гости: 0


Вы не можете начинать темы
Вы не можете отвечать на сообщения
Вы не можете редактировать свои сообщения
Вы не можете удалять свои сообщения
Вы не можете добавлять вложения

Найти:
Перейти:  
cron