Часовой пояс: UTC + 3 часа




Начать новую тему Ответить на тему  [ 1 сообщение ] 
Автор Сообщение
СообщениеДобавлено: 2019-12-26 21:49 
Не в сети
Администратор
Администратор
Аватара пользователя
Раздал: 147.54 ТБ
Скачал: 20.77 ГБ
Ратио: 7272.445


Зарегистрирован: 2010-01-16 12:34
Сообщения: 682
D.O.A: Живым или мертвым / DOA: Dead or Alive


#777

Информация о фильме
Название: D.O.A: Живым или мертвым
Оригинальное название: DOA: Dead or Alive
Год выхода: 2006
Страна: США, Германия
Студия: Constantin Film Produktion GmbH, Impact Pictures, Mindfire Entertainment
Продолжительность: 01:21:23
Перевод: Профессиональный (дублированный)
Субтитры: Russian, English
Жанр: Боевик, приключения

Режиссер: Кори Юэнь

В ролях:
Джэми Прессли, Холли Вэленс, Сара Картер, Девон Аоки, Наташа Мальте, Эрик Робертс, Мэттью Марсден, Брайан Уайт, Коллин Чоу, Кейн Косуги, Кевин Нэш

О фильме:
Тина, Кристи, Касуми и Хелена отменно владеют азиатскими боевыми искусствами. Особенно их коллег мужского пола впечатляет даже не яркая сексуальность каждой из девушек, а сила, которой пронизана каждая из них. В один прекрасный день соперницы получают приглашение посетить тайное состязание по боевым искусствам под названием "Dead or Alive" ("Живым или мертвым") на одном экзотическом азиатском острове. Приз – 10 млн. долларов. Но деньги для многих бойцов – отнюдь не единственная причина участия в этом крутейшем из турниров: это вопрос престижа, чести и поиска ответов на вопросы.



Файл
Формат: MKV
Качество: BDRip 720p (исх.BDRemux.1080p.VC-1) | Open Matte
Видео: 1280x720 at 23.976 fps, x264, ~7587 kbps, 0.343 bpp
Аудио #1: AC3, 6 ch, ~448 kbps - | Русский | - DUB [Пифагор]
Аудио #2: AC3, 6 ch, ~448 kbps - | Английский | -
Формат субтитров: softsub (SRT)

***Релиз от: -=DoMiNo=-

Исходником послужил убитый BDRemux - найденный на просторах инета.
Обрезал большую часть финальных титров и пару секунд на 23-й минуте - по причине битых кадров.
Поэтому хронометраж меньше чем на BD.

СРАВНЕНИЯ => BD (2.35:1) vs BD Open Matte
General
Format : Matroska
Format version : Version 4
File size : 4.82 GiB
Duration : 1 h 21 min
Overall bit rate : 8 486 kb/s
Movie name : D.O.A -Живым или мертвым.(2006).BDRip-AVC.O.M.[-=DoMiNo=-]
Encoded date : UTC 2019-10-09 20:14:12
Writing application : mkvmerge v38.0.0 ('The Silent Type') 64-bit
Writing library : libebml v1.3.9 + libmatroska v1.5.2
Attachments : poster / poster

Video
ID : 1
Format : AVC
Format/Info : Advanced Video Codec
Format profile : High@L4.1
Format settings : CABAC / 9 Ref Frames
Format settings, CABAC : Yes
Format settings, Reference : 9 frames
Codec ID : V_MPEG4/ISO/AVC
Duration : 1 h 21 min
Bit rate : 7 587 kb/s
Width : 1 280 pixels
Height : 720 pixels
Display aspect ratio : 16:9
Frame rate mode : Constant
Frame rate : 23.976 (24000/1001) FPS
Color space : YUV
Chroma subsampling : 4:2:0
Bit depth : 8 bits
Scan type : Progressive
Bits/(Pixel*Frame) : 0.343
Stream size : 4.31 GiB (89%)
Title : RIP_BY_-=DoMiNo=-
Writing library : x264 core 157 r2958 57baac4
Encoding settings : cabac=1 / ref=9 / deblock=1:-3:-3 / analyse=0x3:0x133 / me=umh / subme=11 / psy=1 / psy_rd=1.00:0.00 / mixed_ref=1 / me_range=32 / chroma_me=1 / trellis=2 / 8x8dct=1 / cqm=0 / deadzone=21,11 / fast_pskip=1 / chroma_qp_offset=-2 / threads=6 / lookahead_threads=1 / sliced_threads=0 / nr=0 / decimate=1 / interlaced=0 / bluray_compat=0 / constrained_intra=0 / bframes=12 / b_pyramid=2 / b_adapt=2 / b_bias=0 / direct=1 / weightb=1 / open_gop=0 / weightp=2 / keyint=240 / keyint_min=24 / scenecut=40 / intra_refresh=0 / rc=crf / mbtree=0 / crf=19.0 / qcomp=0.60 / qpmin=15 / qpmax=69 / qpstep=4 / ip_ratio=1.40 / pb_ratio=1.30 / aq=3:0.80
Language : English
Default : Yes
Forced : No

Audio #1
ID : 2
Format : AC-3
Format/Info : Audio Coding 3
Commercial name : Dolby Digital
Codec ID : A_AC3
Duration : 1 h 21 min
Bit rate mode : Constant
Bit rate : 448 kb/s
Channel(s) : 6 channels
Channel layout : L R C LFE Ls Rs
Sampling rate : 48.0 kHz
Frame rate : 31.250 FPS (1536 SPF)
Compression mode : Lossy
Stream size : 261 MiB (5%)
Title : DUB_[Пифагор]
Language : Russian
Service kind : Complete Main
Default : Yes
Forced : No

Audio #2
ID : 3
Format : AC-3
Format/Info : Audio Coding 3
Commercial name : Dolby Digital
Codec ID : A_AC3
Duration : 1 h 21 min
Bit rate mode : Constant
Bit rate : 448 kb/s
Channel(s) : 6 channels
Channel layout : L R C LFE Ls Rs
Sampling rate : 48.0 kHz
Frame rate : 31.250 FPS (1536 SPF)
Compression mode : Lossy
Stream size : 261 MiB (5%)
Language : English
Service kind : Complete Main
Default : No
Forced : No

Text #1
ID : 4
Format : UTF-8
Codec ID : S_TEXT/UTF8
Codec ID/Info : UTF-8 Plain Text
Duration : 1 h 20 min
Bit rate : 53 b/s
Count of elements : 690
Stream size : 31.7 KiB (0%)
Language : Russian
Default : No
Forced : No

Text #2
ID : 5
Format : UTF-8
Codec ID : S_TEXT/UTF8
Codec ID/Info : UTF-8 Plain Text
Duration : 1 h 18 min
Bit rate : 36 b/s
Count of elements : 527
Stream size : 20.7 KiB (0%)
Language : English
Default : No
Forced : No

Menu
00:00:00.000 : :Chapter 1
00:04:23.221 : :Chapter 2
00:07:23.067 : :Chapter 3
00:10:48.355 : :Chapter 4
00:16:43.961 : :Chapter 5
00:20:05.621 : :Chapter 6
00:29:55.084 : :Chapter 7
00:34:28.858 : :Chapter 8
00:41:18.766 : :Chapter 9
00:46:14.646 : :Chapter 10
00:52:06.748 : :Chapter 11
00:59:33.277 : :Chapter 12
01:04:37.498 : :Chapter 13
01:07:12.027 : :Chapter 14
01:12:11.993 : :Chapter 15
01:14:58.618 : :Chapter 16
01:17:32.145 : :Chapter 17
01:19:28.805 : :Chapter 18


У вас нет необходимых прав для просмотра вложений в этом сообщении.


Вернуться к началу
 Профиль  
Ответить с цитатой  
  • Торрент
Автор: Admin Хэш: ---
Добавлен: 2019-12-26 21:49 Приватный: Нет (DHT включён)
Статус: Проверен
Размер: 4.82 ГБ (5 180 011 819 байт)
Изменил:
---
Скачали: 94 (Раздающих: 0%)
Причина:
---
Здоровье: ???%
Сидеров: 0 Личеров: 2
Скорость раздачи: 0 байт/сек Скорость скачивания: 0 байт/сек
Последний сидер: Нет Последний личер: 2 месяца 1 день 22 часа 1 минуту 48 секунд назад
Для скачивания торрента необходимо зарегистрироваться или войти на трекер.
Показать сообщения за:  Поле сортировки  
Начать новую тему Ответить на тему  [ 1 сообщение ] 

Часовой пояс: UTC + 3 часа


Кто сейчас на конференции

Сейчас этот форум просматривают: нет зарегистрированных пользователей и гости: 4


Вы не можете начинать темы
Вы не можете отвечать на сообщения
Вы не можете редактировать свои сообщения
Вы не можете удалять свои сообщения
Вы не можете добавлять вложения

Найти:
Перейти:  
cron
Переместиться наверх
 Главная |  Список форумов |   Time : 0.087s | 16 Queries | GZIP : Off |
tracker_cron