Часовой пояс: UTC + 3 часа




Начать новую тему Ответить на тему  [ 1 сообщение ] 
Автор Сообщение
СообщениеДобавлено: 2019-12-30 03:30 
Не в сети
Администратор
Администратор
Аватара пользователя
Раздал: 80 КБ
Скачал: 0 байт
Ратио: Seed.


Зарегистрирован: 2010-01-16 12:34
Сообщения: 483
Секретные материалы: Хочу верить / The X-Files: I Want to Believe


#777

Информация о фильме
Название: Секретные материалы: Хочу верить
Оригинальное название: The X-Files: I Want to Believe
Год выпуска: 2008
Страна: США, Канада
Студия: 20th Century Fox Film Corporation, Crying Box Productions, Dune Entertainment III, Ten Thirteen Productions
Продолжительность: 01:48:08
Перевод: Дублированный, авторский (одноголосый, закадровый) А.Гаврилов
Жанр: Фантастика, триллер, драма, детектив

Режиссер: Крис Картер

В ролях:
Дэвид Духовны, Джиллиан Андерсон, Аманда Пит, Билли Коннолли, Иксзибит, Митч Пиледжи, Каллум Кит Ренни, Адам Годли, Алекс Дьякун, Никки Эйкокс, Фагин Вудкок, Марко Никколи, Кэрри Ручински, Спенсер Мэйби, Вероника Хадрава, Дэннис Крассноголов, Патрик Китинг, Роджер Хорчоу, Стивен Е. Миллер, Ксанта Рэдли, Лорена Гэйл, Донаван Стинсон, Дайон Джонстоун, Сара-Джейн Редмонд, Кристина Д’Алимонте, Ванеса Томасино, Лувия Петерсен, Бабс Чула, Марси Т. Хаус, Джозеф Патрик Финн, Бет Сиглер, Стэйси Коуплэнд, Том Чаррон

О фильме:
Пропадает без вести сотрудница ФБР, и последней надеждой её коллег становятся Фокс Малдер и Дана Скалли, бывшие специальные агенты, вынужденно, хотя и по разным причинам, оставившие службу. Единственным человеком, дающим следствию хоть какую-то информацию, является престарелый Джозеф Криссман, в прошлом священник, отбывший наказание за совращение малолетних, который уверяет, что картины совершённых преступлений непроизвольно — «по воле Бога» — возникают в его сознании…



Файл
Формат: MKV
Качество: BDRip 720p | BDRemux 1080p |
Видео: AVC, 1280x534 (2.40:1), 23.976 fps, 4 443 Kbps (0.271 bit/pixel)
Аудио #1: AC-3, 48.0 KHz, 6 ch, 448 Kbps, CBR (Russian) - дублированный
Аудио #2: AC-3, 48.0 KHz, 6 ch, 448 Kbps, CBR (Russian) - авторский А.Гаврилов
Аудио #3: AC-3, 48.0 KHz, 6 ch, 448 Kbps, CBR (English) - оригинальная звуковая дорожка
Субтитры: Русские (форсированный, полные, комментарии), английские (полные, комментарии)

x264 [info]: profile High, level 4.1
x264 [info]: frame I:1282 Avg QP:14.89 size:100800 PSNR Mean Y:47.61 U:50.48 V:50.74 Avg:48.37 Global:47.81
x264 [info]: frame P:33795 Avg QP:17.76 size: 41553 PSNR Mean Y:45.45 U:48.69 V:49.17 Avg:46.30 Global:45.70
x264 [info]: frame B:120487 Avg QP:19.98 size: 17183 PSNR Mean Y:44.24 U:47.97 V:48.70 Avg:45.18 Global:44.47
x264 [info]: consecutive B-frames: 2.2% 2.9% 10.1% 15.6% 13.5% 46.3% 5.0% 1.1% 1.2% 1.0% 1.1%
Формат : Matroska
Версия формата : Version 2
Размер файла : 4,37 Гбайт
Продолжительность : 1 ч. 48 м.
Общий поток : 5790 Кбит/сек
Дата кодирования : UTC 2017-06-19 07:23:52
Программа кодирования : mkvmerge v5.3.0 ('I could have danced') built on Feb 9 2012 10:38:07
Библиотека кодирования : libebml v1.2.3 + libmatroska v1.3.0
Attachments : poster.jpg

Видео
Идентификатор : 1
Формат : AVC
Формат/Информация : Advanced Video Codec
Профиль формата : High@L4.1
Параметр CABAC формата : Да
Параметр ReFrames формата : 12 кадров
Идентификатор кодека : V_MPEG4/ISO/AVC
Продолжительность : 1 ч. 48 м.
Битрейт : 4443 Кбит/сек
Ширина : 1280 пикселей
Высота : 534 пикселя
Соотношение сторон : 2,40:1
Режим частоты кадров : Постоянный
Частота кадров : 23,976 (24000/1001) кадра/сек
Цветовое пространство : YUV
Субдискретизация насыщенности : 4:2:0
Битовая глубина : 8 бит
Тип развёртки : Прогрессивная
Бит/(Пиксели*Кадры) : 0.271
Размер потока : 3,27 Гбайт (75%)
Библиотека кодирования : x264 core 146 r2538 121396c
Настройки программы : cabac=1 / ref=12 / deblock=1:-3:-3 / analyse=0x3:0x133 / me=umh / subme=11 / psy=1 / psy_rd=1.00:0.00 / mixed_ref=1 / me_range=32 / chroma_me=1 / trellis=2 / 8x8dct=1 / cqm=0 / deadzone=21,11 / fast_pskip=0 / chroma_qp_offset=-2 / threads=12 / lookahead_threads=3 / sliced_threads=0 / nr=0 / decimate=0 / interlaced=0 / bluray_compat=0 / constrained_intra=0 / bframes=10 / b_pyramid=2 / b_adapt=2 / b_bias=0 / direct=3 / weightb=1 / open_gop=0 / weightp=2 / keyint=240 / keyint_min=23 / scenecut=40 / intra_refresh=0 / rc=2pass / mbtree=0 / bitrate=4443 / ratetol=1.0 / qcomp=0.60 / qpmin=0 / qpmax=69 / qpstep=4 / cplxblur=20.0 / qblur=0.5 / ip_ratio=1.40 / pb_ratio=1.30 / aq=1:0.90
Язык : English
Default : Да
Forced : Нет

Аудио #1
Идентификатор : 2
Формат : AC-3
Формат/Информация : Audio Coding 3
Расширение режима : CM (complete main)
Параметр Endianness формата : Big
Идентификатор кодека : A_AC3
Продолжительность : 1 ч. 48 м.
Вид битрейта : Постоянный
Битрейт : 448 Кбит/сек
Каналы : 6 каналов
Расположение каналов : Front: L C R, Side: L R, LFE
Частота : 48,0 КГц
Частота кадров : 31,250 кадров/сек (1536 spf)
Битовая глубина : 16 бит
Метод сжатия : С потерями
Размер потока : 347 Мбайт (8%)
Заголовок : Дублированный
Язык : Russian
Default : Да
Forced : Нет

Аудио #2
Идентификатор : 3
Формат : AC-3
Формат/Информация : Audio Coding 3
Расширение режима : CM (complete main)
Параметр Endianness формата : Big
Идентификатор кодека : A_AC3
Продолжительность : 1 ч. 48 м.
Вид битрейта : Постоянный
Битрейт : 448 Кбит/сек
Каналы : 6 каналов
Расположение каналов : Front: L C R, Side: L R, LFE
Частота : 48,0 КГц
Частота кадров : 31,250 кадров/сек (1536 spf)
Битовая глубина : 16 бит
Метод сжатия : С потерями
Размер потока : 347 Мбайт (8%)
Заголовок : Авторский А.Гаврилов
Язык : Russian
Default : Нет
Forced : Нет

Аудио #3
Идентификатор : 4
Формат : AC-3
Формат/Информация : Audio Coding 3
Расширение режима : CM (complete main)
Параметр Endianness формата : Big
Идентификатор кодека : A_AC3
Продолжительность : 1 ч. 48 м.
Вид битрейта : Постоянный
Битрейт : 448 Кбит/сек
Каналы : 6 каналов
Расположение каналов : Front: L C R, Side: L R, LFE
Частота : 48,0 КГц
Частота кадров : 31,250 кадров/сек (1536 spf)
Битовая глубина : 16 бит
Метод сжатия : С потерями
Размер потока : 347 Мбайт (8%)
Заголовок : оригинал
Язык : English
Default : Нет
Forced : Нет

Текст #1
Идентификатор : 5
Формат : UTF-8
Идентификатор кодека : S_TEXT/UTF8
Идентификатор кодека/Информация : UTF-8 Plain Text
Заголовок : forced
Язык : Russian
Default : Да
Forced : Нет

Текст #2
Идентификатор : 6
Формат : UTF-8
Идентификатор кодека : S_TEXT/UTF8
Идентификатор кодека/Информация : UTF-8 Plain Text
Заголовок : full
Язык : Russian
Default : Нет
Forced : Нет

Текст #3
Идентификатор : 7
Формат : UTF-8
Идентификатор кодека : S_TEXT/UTF8
Идентификатор кодека/Информация : UTF-8 Plain Text
Заголовок : Комментарии
Язык : Russian
Default : Нет
Forced : Нет

Текст #4
Идентификатор : 8
Формат : UTF-8
Идентификатор кодека : S_TEXT/UTF8
Идентификатор кодека/Информация : UTF-8 Plain Text
Заголовок : full
Язык : English
Default : Нет
Forced : Нет

Текст #5
Идентификатор : 9
Формат : UTF-8
Идентификатор кодека : S_TEXT/UTF8
Идентификатор кодека/Информация : UTF-8 Plain Text
Заголовок : Комментарии
Язык : English
Default : Нет
Forced : Нет

Меню
00:00:00.000 : en:Chapter 1
00:02:47.417 : en:Chapter 2
00:04:28.768 : en:Chapter 3
00:05:16.733 : en:Chapter 4
00:06:34.603 : en:Chapter 5
00:11:25.476 : en:Chapter 6
00:14:43.466 : en:Chapter 7
00:20:13.754 : en:Chapter 8
00:22:43.487 : en:Chapter 9
00:25:29.445 : en:Chapter 10
00:27:33.944 : en:Chapter 11
00:27:46.790 : en:Chapter 12
00:28:09.521 : en:Chapter 13
00:30:35.834 : en:Chapter 14
00:34:27.899 : en:Chapter 15
00:36:22.680 : en:Chapter 16
00:40:16.748 : en:Chapter 17
00:42:13.156 : en:Chapter 18
00:46:45.886 : en:Chapter 19
00:49:03.148 : en:Chapter 20
00:49:25.296 : en:Chapter 21
00:49:46.150 : en:Chapter 22
00:52:17.926 : en:Chapter 23
00:57:57.349 : en:Chapter 24
00:59:29.608 : en:Chapter 25
01:02:44.594 : en:Chapter 26
01:07:08.566 : en:Chapter 27
01:08:41.325 : en:Chapter 28
01:10:43.948 : en:Chapter 29
01:12:16.457 : en:Chapter 30
01:15:13.843 : en:Chapter 31
01:17:18.258 : en:Chapter 32
01:19:22.341 : en:Chapter 33
01:20:39.501 : en:Chapter 34
01:22:30.696 : en:Chapter 35
01:24:19.846 : en:Chapter 36
01:27:13.562 : en:Chapter 37
01:30:11.114 : en:Chapter 38
01:35:30.391 : en:Chapter 39
01:36:09.430 : en:Chapter 40
01:38:22.605 : en:Chapter 41
01:41:05.351 : en:Chapter 42
01:42:22.178 : en:Chapter 43
01:48:02.351 : en:Chapter 44

Скриншоты:


Релиз:


У вас нет необходимых прав для просмотра вложений в этом сообщении.


Вернуться к началу
 Профиль  
Ответить с цитатой  
  • Торрент
Автор: Admin Хэш: ---
Добавлен: 2019-12-30 03:30 Приватный: Нет (DHT включён)
Статус: Проверен
Размер: 4.37 ГБ (4 696 250 967 байт)
Изменил:
---
Скачали: 0 (Раздающих: 0%)
Причина:
---
Здоровье: 0%
Сидеров: 0 Личеров: 0
Скорость раздачи: 0 байт/сек Скорость скачивания: 0 байт/сек
Последний сидер: Нет Последний личер: Нет
Для скачивания торрента необходимо зарегистрироваться или войти на трекер.
Показать сообщения за:  Поле сортировки  
Начать новую тему Ответить на тему  [ 1 сообщение ] 

Часовой пояс: UTC + 3 часа


Кто сейчас на конференции

Сейчас этот форум просматривают: нет зарегистрированных пользователей и гости: 2


Вы не можете начинать темы
Вы не можете отвечать на сообщения
Вы не можете редактировать свои сообщения
Вы не можете удалять свои сообщения
Вы не можете добавлять вложения

Найти:
Перейти:  
cron