Часовой пояс: UTC + 3 часа




Начать новую тему Ответить на тему  [ 1 сообщение ] 
Автор Сообщение
СообщениеДобавлено: 2020-01-05 17:12 
Не в сети
Администратор
Администратор
Аватара пользователя
Раздал: 1.22 ТБ
Скачал: 2.13 ГБ
Ратио: 585.764


Зарегистрирован: 2014-03-16 00:45
Сообщения: 2629
Грабеж / Heist


#777

Информация о фильме
Название: Грабеж
Оригинальное название: Heist
Год выпуска: 2001
Страна: Канада, США
Студия: Morgan Creek Productions, Stolen Film Productions
Продолжительность: 01:48:47
Перевод: Профессиональный (двухголосый, закадровый), Профессиональный (многоголосый закадровый), Авторский (одноголосый, закадровый)
Жанр: боевик, триллер, драма, криминал

Режиссер: Дэвид Мэмет

В ролях:
Джин Хэкмен, Дэнни ДеВито, Делрой Линдо, Сэм Рокуэлл, Ребекка Пиджон, Рикки Джей, Патти ЛюПон, Алан Билзериан, Ричард Л. Фридман, Роберт Люббьер

О фильме:
У Джо Мура есть все — красивая молодая жена, деньги, которые ему должны, и работа, которую он любит. Он — вор. Его работа накрывается медным тазом тогда, когда его застукивают при помощи охранной камеры. Его соперник, Бергман шантажирует его, требуя простить долг, а его жена уходит к новичку — другу Бергмана. Мур, его партнер, Бобби Блан и их связной Пинки Пинкус вынуждены собрать команду, которая сделает ограбление по заказу Бергмана, и которое станет последним в карьере Мура. Сдаст ли Бергман Мура полиции? Вернется ли к Муру жена? Выйдут ли сухими из воды Блан и Пинкус? Кому можно верить, а кто предаст? Не будет ли кто-нибудь солгав однажды, лгать в очередной раз? И наконец, кто будет смеяться последним?



Файл
Качество: BDRip 720p
Формат: Matroska
Видео: 1280x694 at 23.976 fps, x264 ~8200 kbps avg
Аудио#1: Russian: 48 kHz, AC3, 3/2 (L,C,R,l,r) + LFE ch, ~448 kbps avg |Двухголосый закадровый, R5|
Аудио#2: Russian: 48 kHz, AC3, 3/2 (L,C,R,l,r) + LFE ch, ~384 kbps avg |Многоголосый закадровый, ?|
Аудио#3: Russian: 48 kHz, AC3, 3/2 (L,C,R,l,r) + LFE ch, ~384 kbps avg |Авторский, Ю.Живов|
Аудио#4: Russian: 48 kHz, AC3, 3/2 (L,C,R,l,r) + LFE ch, ~384 kbps avg |Авторский, М.Яроцкий|
Аудио#5: English: 48 kHz, DTS, 3/2 (L,C,R,l,r) + LFE ch, ~1509 kbps avg
Субтитры: Russian, English

***Перевод М.Яроцкого доступен благодаря: 7654, mihey10, dikii, sancrew, Антиквар, Ольга. Работа со звуком Переводман. Присутствует ненормативная лексика!
***Релиз: LION1234

В США фильм выпустили в прокат сразу после фильма «Медвежатник» (2001), что пагубно сказалось на сборах фильма и реакции публики.
[*]Рикки Джей в начале фильма несет стопку книг, среди которых можно заметить одну под названием «Магия Барселоны». Это намек на самого Джея, получившего известность как фокусник и маг.
Общее
Формат : Matroska
Версия формата : Version 4
Размер файла : 8,64 Гбайт
Продолжительность : 1 ч. 48 м.
Общий поток : 11,4 Мбит/сек
Название фильма : Heist.2001 - Rutracker
Дата кодирования : UTC 2020-01-04 16:13:11
Программа кодирования : mkvmerge v42.0.0 ('Overtime') 64-bit
Библиотека кодирования : libebml v1.3.10 + libmatroska v1.5.2
Обложка : Yes
Attachments : cover.jpg

Видео
Идентификатор : 1
Формат : AVC
Формат/Информация : Advanced Video Codec
Профиль формата : High@L4.1
Настройки формата : CABAC / 9 Ref Frames
Параметр CABAC формата : Да
Параметр RefFrames формата : 9 кадров
Идентификатор кодека : V_MPEG4/ISO/AVC
Продолжительность : 1 ч. 48 м.
Битрейт : 8253 Кбит/сек
Ширина : 1280 пикселей
Высота : 694 пикселя
Соотношение сторон : 1,85:1
Режим частоты кадров : Постоянный
Частота кадров : 23,976 (24000/1001) кадра/сек
Цветовое пространство : YUV
Субдискретизация насыщенности : 4:2:0
Битовая глубина : 8 бит
Тип развёртки : Прогрессивная
Бит/(Пиксели*Кадры) : 0.387
Размер потока : 6,27 Гбайт (73%)
Заголовок : Heist.2001 - ripped by
Библиотека кодирования : x264 core 157 r2969 d4099dd
Настройки программы : cabac=1 / ref=9 / deblock=1:-3:-3 / analyse=0x3:0x113 / me=umh / subme=10 / psy=1 / psy_rd=0.95:0.00 / mixed_ref=1 / me_range=32 / chroma_me=1 / trellis=2 / 8x8dct=1 / cqm=0 / deadzone=21,11 / fast_pskip=0 / chroma_qp_offset=-2 / threads=6 / lookahead_threads=1 / sliced_threads=0 / nr=0 / decimate=0 / interlaced=0 / bluray_compat=0 / constrained_intra=0 / bframes=14 / b_pyramid=2 / b_adapt=2 / b_bias=0 / direct=1 / weightb=1 / open_gop=0 / weightp=2 / keyint=240 / keyint_min=23 / scenecut=40 / intra_refresh=0 / rc_lookahead=40 / rc=crf / mbtree=0 / crf=19.1 / qcomp=0.67 / qpmin=0 / qpmax=69 / qpstep=4 / vbv_maxrate=62500 / vbv_bufsize=78125 / crf_max=0.0 / nal_hrd=none / filler=0 / ip_ratio=1.20 / pb_ratio=1.10 / aq=3:0.87
Default : Да
Forced : Нет

Аудио #1
Идентификатор : 2
Формат : AC-3
Формат/Информация : Audio Coding 3
Коммерческое название : Dolby Digital
Идентификатор кодека : A_AC3
Продолжительность : 1 ч. 48 м.
Вид битрейта : Постоянный
Битрейт : 448 Кбит/сек
Каналы : 6 каналов
ChannelLayout : L R C LFE Ls Rs
Частота : 48,0 КГц
Частота кадров : 31,250 кадров/сек (1536 SPF)
Метод сжатия : С потерями
Размер потока : 348 Мбайт (4%)
Заголовок : русский DVO, R5
Язык : Russian
ServiceKind/String : Complete Main
Default : Да
Forced : Нет

Аудио #2
Идентификатор : 3
Формат : AC-3
Формат/Информация : Audio Coding 3
Коммерческое название : Dolby Digital
Идентификатор кодека : A_AC3
Продолжительность : 1 ч. 48 м.
Вид битрейта : Постоянный
Битрейт : 384 Кбит/сек
Каналы : 6 каналов
ChannelLayout : L R C LFE Ls Rs
Частота : 48,0 КГц
Частота кадров : 31,250 кадров/сек (1536 SPF)
Метод сжатия : С потерями
Размер потока : 299 Мбайт (3%)
Заголовок : русский MVO
Язык : Russian
ServiceKind/String : Complete Main
Default : Нет
Forced : Нет

Аудио #3
Идентификатор : 4
Формат : AC-3
Формат/Информация : Audio Coding 3
Коммерческое название : Dolby Digital
Идентификатор кодека : A_AC3
Продолжительность : 1 ч. 48 м.
Вид битрейта : Постоянный
Битрейт : 384 Кбит/сек
Каналы : 6 каналов
ChannelLayout : L R C LFE Ls Rs
Частота : 48,0 КГц
Частота кадров : 31,250 кадров/сек (1536 SPF)
Метод сжатия : С потерями
Размер потока : 299 Мбайт (3%)
Заголовок : руский AVO, Ю. Живов
Язык : Russian
ServiceKind/String : Complete Main
Default : Нет
Forced : Нет

Аудио #4
Идентификатор : 5
Формат : AC-3
Формат/Информация : Audio Coding 3
Коммерческое название : Dolby Digital
Идентификатор кодека : A_AC3
Продолжительность : 1 ч. 48 м.
Вид битрейта : Постоянный
Битрейт : 384 Кбит/сек
Каналы : 6 каналов
ChannelLayout : L R C LFE Ls Rs
Частота : 48,0 КГц
Частота кадров : 31,250 кадров/сек (1536 SPF)
Метод сжатия : С потерями
Размер потока : 299 Мбайт (3%)
Заголовок : русский VO, М. Яроцкий aka kyberpunk
Язык : Russian
ServiceKind/String : Complete Main
Default : Нет
Forced : Нет

Аудио #5
Идентификатор : 6
Формат : DTS
Формат/Информация : Digital Theater Systems
Идентификатор кодека : A_DTS
Продолжительность : 1 ч. 48 м.
Вид битрейта : Постоянный
Битрейт : 1509 Кбит/сек
Каналы : 6 каналов
ChannelLayout : C L R Ls Rs LFE
Частота : 48,0 КГц
Частота кадров : 93,750 кадра/сек (512 SPF)
Битовая глубина : 16 бит
Метод сжатия : С потерями
Размер потока : 1,15 Гбайт (13%)
Заголовок : английский
Язык : English
Default : Нет
Forced : Нет

Текст #1
Идентификатор : 7
Формат : UTF-8
Идентификатор кодека : S_TEXT/UTF8
Идентификатор кодека/Информация : UTF-8 Plain Text
Продолжительность : 1 ч. 40 м.
Битрейт : 75 бит/сек
ElementCount : 949
Размер потока : 55,1 Кбайт (0%)
Заголовок : русские
Язык : Russian
Default : Нет
Forced : Нет

Текст #2
Идентификатор : 8
Формат : UTF-8
Идентификатор кодека : S_TEXT/UTF8
Идентификатор кодека/Информация : UTF-8 Plain Text
Продолжительность : 1 ч. 40 м.
Битрейт : 58 бит/сек
ElementCount : 1357
Размер потока : 42,8 Кбайт (0%)
Заголовок : английские
Язык : English
Default : Нет
Forced : Нет

Меню
00:00:00.000 : :Chapter 01
00:10:01.517 : :Chapter 02
00:20:01.658 : :Chapter 03
00:30:02.467 : :Chapter 04
00:40:03.192 : :Chapter 05
00:50:03.041 : :Chapter 06
01:00:03.766 : :Chapter 07
01:10:05.034 : :Chapter 08
01:20:05.425 : :Chapter 09
01:30:06.275 : :Chapter 10
01:40:06.583 : :Chapter 11


У вас нет необходимых прав для просмотра вложений в этом сообщении.


Вернуться к началу
 Профиль  
Ответить с цитатой  
  • Торрент
Автор: Consultants Хэш: ---
Добавлен: 2020-01-05 17:12 Приватный: Нет (DHT включён)
Статус: Проверен
Размер: 8.64 ГБ (9 273 625 009 байт)
Изменил:
---
Скачали: 0 (Раздающих: 0%)
Причина:
---
Здоровье: 0%
Сидеров: 0 Личеров: 0
Скорость раздачи: 0 байт/сек Скорость скачивания: 0 байт/сек
Последний сидер: Нет Последний личер: Нет
Для скачивания торрента необходимо зарегистрироваться или войти на трекер.
Показать сообщения за:  Поле сортировки  
Начать новую тему Ответить на тему  [ 1 сообщение ] 

Часовой пояс: UTC + 3 часа


Кто сейчас на конференции

Сейчас этот форум просматривают: нет зарегистрированных пользователей и гости: 3


Вы не можете начинать темы
Вы не можете отвечать на сообщения
Вы не можете редактировать свои сообщения
Вы не можете удалять свои сообщения
Вы не можете добавлять вложения

Найти:
Перейти:  
cron