Часовой пояс: UTC + 3 часа




Начать новую тему Ответить на тему  [ 1 сообщение ] 
Автор Сообщение
СообщениеДобавлено: 2020-01-07 14:01 
Не в сети
Администратор
Администратор
Аватара пользователя
Раздал: 147.54 ТБ
Скачал: 20.77 ГБ
Ратио: 7272.445


Зарегистрирован: 2010-01-16 12:34
Сообщения: 682
Ford против Ferrari / Ford v Ferrari


#777

Информация о фильме
Название: Ford против Ferrari
Оригинальное название: Ford v Ferrari
Год выхода: 2019
Страна: США, Франция
Студия: Chernin Entertainment, Twentieth Century Fo
Продолжительность: 02:32:33
Перевод: Профессиональный (многоголосый, закадровый) | HDrezka Studio
Жанр: биография, спорт, драма, боевик

Режиссер: Джеймс Мэнголд

В ролях:
Кристиан Бэйл, Мэтт Дэймон, Катрина Балф, Трэйси Леттс, Джон Бернтал, Ноа Джуп, Джош Лукас, Ремо Джироне, Рэй Маккиннон, Джей Джей Филд

О фильме:
Фильм рассказывает о взаимоотношениях американского автомобильного конструктора Кэрролла Шелби и отважного британского гонщика Кена Майлза, которые вместе бросили вызов корпорациям и собственным демонам, чтобы создать абсолютно новый спорткар, который смог конкурировать с Ferrari на чемпионате мира, прошедшем во Франции в середине 1960-х.




Файл
Кодек: AVC/H.264, 1920x800, ~4994 Кbps, 23.976 fps
Качество: WEBRip 1080p | HDRezka Studio
Звук:
Аудио 1: AC3, 6 ch, 448 Kbps - Русский
Аудио 2: AC3, 2 ch, 192 Kbps - Украинский
Аудио 3: AC3, 6 ch, 448 Kbps - Английский
Субтитры: Русские (Forced, Full), Английские (Full)

Общее
Уникальный идентификатор : 319467107614623357948994479060716535891 (0xF057207B3828293DD55D011D2102C053)
Полное имя : Ford_V_Ferrari.2019.Scr.1080p.mkv
Формат : Matroska
Версия формата : Version 4
Размер файла : 6,48 Гбайт
Продолжительность : 2 ч. 32 м.
Режим общего битрейта : Переменный
Общий поток : 6085 Кбит/сек
Дата кодирования : UTC 2020-01-05 19:00:15
Программа кодирования : mkvmerge v23.0.0 ('The Bride Said No') 64-bit
Библиотека кодирования : libebml v1.3.6 + libmatroska v1.4.9

Видео
Идентификатор : 1
Формат : AVC
Формат/Информация : Advanced Video Codec
Профиль формата : High@L5.1
Настройки формата : CABAC / 5 Ref Frames
Параметр CABAC формата : Да
Параметр RefFrames формата : 5 кадров
Идентификатор кодека : V_MPEG4/ISO/AVC
Продолжительность : 2 ч. 32 м.
Вид битрейта : Переменный
Битрейт : 4994 Кбит/сек
Максимальный битрейт : 8000 Кбит/сек
Ширина : 1920 пикселей
Высота : 800 пикселей
Соотношение сторон : 2,40:1
Режим частоты кадров : Постоянный
Частота кадров : 23,976 (24000/1001) кадра/сек
Стандарт вещания : NTSC
Цветовое пространство : YUV
Субдискретизация насыщенности : 4:2:0
Битовая глубина : 8 бит
Тип развёртки : Прогрессивная
Бит/(Пиксели*Кадры) : 0.136
Размер потока : 5,32 Гбайт (82%)
Язык : English
Default : Да
Forced : Нет
Цветовой диапазон : Limited
Основные цвета : BT.709
Характеристики трансфера : BT.709
Коэффициенты матрицы : BT.709

Аудио #1
Идентификатор : 2
Формат : AC-3
Формат/Информация : Audio Coding 3
Коммерческое название : Dolby Digital
Идентификатор кодека : A_AC3
Продолжительность : 2 ч. 32 м.
Вид битрейта : Постоянный
Битрейт : 448 Кбит/сек
Каналы : 6 каналов
ChannelLayout : L R C LFE Ls Rs
Частота : 48,0 КГц
Частота кадров : 31,250 кадров/сек (1536 SPF)
Метод сжатия : С потерями
Размер потока : 489 Мбайт (7%)
Заголовок : MVO (HDrezka Studio)
Язык : Russian
ServiceKind : Complete Main
Default : Да
Forced : Нет

Аудио #2
Идентификатор : 3
Формат : AC-3
Формат/Информация : Audio Coding 3
Коммерческое название : Dolby Digital
Идентификатор кодека : A_AC3
Продолжительность : 2 ч. 32 м.
Вид битрейта : Постоянный
Битрейт : 192 Кбит/сек
Каналы : 2 канала
ChannelLayout : L R
Частота : 48,0 КГц
Частота кадров : 31,250 кадров/сек (1536 SPF)
Метод сжатия : С потерями
Размер потока : 210 Мбайт (3%)
Заголовок : Line
Язык : Ukrainian
ServiceKind : Complete Main
Default : Нет
Forced : Нет

Аудио #3
Идентификатор : 4
Формат : AC-3
Формат/Информация : Audio Coding 3
Коммерческое название : Dolby Digital
Идентификатор кодека : A_AC3
Продолжительность : 2 ч. 32 м.
Вид битрейта : Постоянный
Битрейт : 448 Кбит/сек
Каналы : 6 каналов
ChannelLayout : L R C LFE Ls Rs
Частота : 48,0 КГц
Частота кадров : 31,250 кадров/сек (1536 SPF)
Метод сжатия : С потерями
Размер потока : 489 Мбайт (7%)
Язык : English
ServiceKind : Complete Main
Default : Нет
Forced : Нет

Текст #1
Идентификатор : 5
Формат : UTF-8
Идентификатор кодека : S_TEXT/UTF8
Идентификатор кодека/Информация : UTF-8 Plain Text
Продолжительность : 33 м. 50 с.
Битрейт : 3 бит/сек
ElementCount : 7
Размер потока : 789 байт (0%)
Заголовок : Forced
Язык : Russian
Default : Да
Forced : Нет

Текст #2
Идентификатор : 6
Формат : UTF-8
Идентификатор кодека : S_TEXT/UTF8
Идентификатор кодека/Информация : UTF-8 Plain Text
Продолжительность : 2 ч. 26 м.
Битрейт : 82 бит/сек
ElementCount : 1652
Размер потока : 87,8 Кбайт (0%)
Заголовок : Full (blindAvocado)
Язык : Russian
Default : Нет
Forced : Нет

Текст #3
Идентификатор : 7
Формат : UTF-8
Идентификатор кодека : S_TEXT/UTF8
Идентификатор кодека/Информация : UTF-8 Plain Text
Продолжительность : 2 ч. 24 м.
Битрейт : 51 бит/сек
ElementCount : 1638
Размер потока : 54,8 Кбайт (0%)
Язык : English
Default : Нет
Forced : Нет



У вас нет необходимых прав для просмотра вложений в этом сообщении.


Вернуться к началу
 Профиль  
Ответить с цитатой  
  • Торрент
Автор: Admin Хэш: ---
Добавлен: 2020-01-07 14:01 Приватный: Нет (DHT включён)
Статус: Проверен
Размер: 6.48 ГБ (6 962 274 656 байт)
Изменил:
---
Скачали: 17 (Раздающих: 0%)
Причина:
---
Здоровье: 100%
Сидеров: 328 Личеров: 3
Скорость раздачи: 0 байт/сек Скорость скачивания: 0 байт/сек
Последний сидер: 2 месяца 1 день 22 часа 50 минут 7 секунд назад Последний личер: 2 месяца 1 день 22 часа 50 минут 7 секунд назад
Для скачивания торрента необходимо зарегистрироваться или войти на трекер.
Показать сообщения за:  Поле сортировки  
Начать новую тему Ответить на тему  [ 1 сообщение ] 

Часовой пояс: UTC + 3 часа


Кто сейчас на конференции

Сейчас этот форум просматривают: нет зарегистрированных пользователей и гости: 1


Вы не можете начинать темы
Вы не можете отвечать на сообщения
Вы не можете редактировать свои сообщения
Вы не можете удалять свои сообщения
Вы не можете добавлять вложения

Найти:
Перейти:  
Переместиться наверх
 Главная |  Список форумов |   Time : 0.091s | 17 Queries | GZIP : Off |