Часовой пояс: UTC + 3 часа




Начать новую тему Ответить на тему  [ 1 сообщение ] 
Автор Сообщение
СообщениеДобавлено: 2020-08-01 11:49 
Не в сети
Администратор
Администратор
Аватара пользователя
Раздал: 1.24 ТБ
Скачал: 2.7 ГБ
Ратио: 470.569


Зарегистрирован: 2014-03-16 00:45
Сообщения: 2995
#777
Информация о фильме
Название: Ничего себе поездочка
Оригинальное название: Joy Ride
Год выхода: 2001
Жанр: триллер, детектив
Режиссер: Джон Дал
В ролях: Стив Зан, Пол Уокер, Лили Собески, Джессика Боуман, Стюарт Стоун, Бейзил Уоллес, Брайан Лекнер, Мэри Уиклифф, МакКензи Саттертвейт, Делл Йонт

О фильме:
Темная, пустынная лента шоссе змеей протянулась по безлюдному ландшафту средней Америки. Эта дорога живет своей жизнью, по своим правилам и законам, и если ты осмелился совершить по ней путешествие, то неплохо бы эти законы выучить наизусть.

Герои фильма попадают в жуткую переделку, когда Фулер уговаривает младшего брата Льюиса установить в машине старый радиопередатчик.

Для него это лишь «клевая» антикварная диковинка, с помощью которой можно позволить себе небольшой розыгрыш. Теперь ребятам придется своей кровью расплачиваться за поступок, на который способен каждый из нас…



Страна: США
Студия: Bad Robot, Epsilon Motion Pictures, LivePlanet, New Regency Pictures, Regency Enterprises
Продолжительность: 01:37:07
Перевод: Профессиональный (дублированный) Невафильм

Файл
Качество: WEBRip-AVC
Формат: Matroska
Видео: 1024x576 at 23.976 fps, ~2127 kbps
Аудио: 48 kHz, AC3, 3/2 (L,C,R,l,r) + LFE ch, ~448 kbps
Cубтитры: Russian, English

General
Complete name : Ничего себе поездочка_(2001)_WEBRip-AVC_[Open Matte].mkv
Format : Matroska
Format version : Version 4
File size : 1.75 GiB
Duration : 1 h 37 min
Overall bit rate : 2 578 kb/s
Movie name : Ничего себе поездочка
Encoded date : UTC 2018-10-08 07:51:14
Writing application : mkvmerge v27.0.0 ('Metropolis') 64-bit
Writing library : libebml v1.3.6 + libmatroska v1.4.9
Cover : Yes
Attachments : cover.png

Video
ID : 1
Format : AVC
Format/Info : Advanced Video Codec
Format profile : High@L3.1
Format settings : CABAC / 8 Ref Frames
Format settings, CABAC : Yes
Format settings, ReFrames : 8 frames
Codec ID : V_MPEG4/ISO/AVC
Duration : 1 h 37 min
Bit rate : 2 127 kb/s
Width : 1 024 pixels
Height : 576 pixels
Display aspect ratio : 16:9
Frame rate mode : Constant
Frame rate : 23.976 (24000/1001) FPS
Color space : YUV
Chroma subsampling : 4:2:0
Bit depth : 8 bits
Scan type : Progressive
Bits/(Pixel*Frame) : 0.150
Stream size : 1.44 GiB (82%)
Title : Joy Ride (2001)
Writing library : x264 core 146 r2538 121396c
Encoding settings : cabac=1 / ref=8 / deblock=1:0:0 / analyse=0x3:0x113 / me=umh / subme=10 / psy=1 / psy_rd=1.00:0.00 / mixed_ref=1 / me_range=32 / chroma_me=1 / trellis=2 / 8x8dct=1 / cqm=0 / deadzone=21,11 / fast_pskip=0 / chroma_qp_offset=-2 / threads=6 / lookahead_threads=1 / sliced_threads=0 / nr=0 / decimate=1 / interlaced=0 / bluray_compat=0 / constrained_intra=0 / bframes=9 / b_pyramid=2 / b_adapt=2 / b_bias=0 / direct=3 / weightb=1 / open_gop=0 / weightp=2 / keyint=250 / keyint_min=23 / scenecut=40 / intra_refresh=0 / rc_lookahead=50 / rc=2pass / mbtree=1 / bitrate=2127 / ratetol=1.0 / qcomp=0.60 / qpmin=0 / qpmax=69 / qpstep=4 / cplxblur=20.0 / qblur=0.5 / vbv_maxrate=14000 / vbv_bufsize=14000 / nal_hrd=none / filler=0 / ip_ratio=1.40 / aq=1:1.00
Language : English
Default : Yes
Forced : No

Audio
ID : 2
Format : AC-3
Format/Info : Audio Coding 3
Commercial name : Dolby Digital
Codec ID : A_AC3
Duration : 1 h 37 min
Bit rate mode : Constant
Bit rate : 448 kb/s
Channel(s) : 6 channels
Channel layout : L R C LFE Ls Rs
Sampling rate : 48.0 kHz
Frame rate : 31.250 FPS (1536 SPF)
Bit depth : 16 bits
Compression mode : Lossy
Stream size : 311 MiB (17%)
Title : DUB [Невафильм]
Language : Russian
Service kind : Complete Main
Default : Yes
Forced : No

Text #1
ID : 3
Format : UTF-8
Codec ID : S_TEXT/UTF8
Codec ID/Info : UTF-8 Plain Text
Duration : 1 h 36 min
Bit rate : 64 b/s
Count of elements : 825
Stream size : 45.7 KiB (0%)
Title : RUS_full
Language : Russian
Default : No
Forced : No

Text #2
ID : 4
Format : UTF-8
Codec ID : S_TEXT/UTF8
Codec ID/Info : UTF-8 Plain Text
Duration : 1 h 32 min
Bit rate : 81 b/s
Count of elements : 1087
Stream size : 55.3 KiB (0%)
Title : RUS_full
Language : Russian
Default : No
Forced : No

Text #3
ID : 5
Format : UTF-8
Codec ID : S_TEXT/UTF8
Codec ID/Info : UTF-8 Plain Text
Duration : 1 h 32 min
Bit rate : 53 b/s
Count of elements : 1107
Stream size : 36.1 KiB (0%)
Title : ENG
Language : English
Default : No
Forced : No

Text #4
ID : 6
Format : UTF-8
Codec ID : S_TEXT/UTF8
Codec ID/Info : UTF-8 Plain Text
Duration : 1 h 32 min
Bit rate : 60 b/s
Count of elements : 1225
Stream size : 40.8 KiB (0%)
Title : ENG_[SDH]
Language : English
Default : No
Forced : No

Menu
00:00:00.000 : en:Глава 01
00:10:00.000 : en:Глава 02
00:20:00.000 : en:Глава 03
00:30:00.000 : en:Глава 04
00:40:00.000 : en:Глава 05
00:50:00.000 : en:Глава 06
01:00:00.000 : en:Глава 07
01:10:00.000 : en:Глава 08
01:20:00.000 : en:Глава 09
01:30:00.000 : en:Глава 10


У вас нет необходимых прав для просмотра вложений в этом сообщении.


Вернуться к началу
 Профиль  
Ответить с цитатой  
  • Торрент
Автор: Consultants Хэш: ---
Добавлен: 2020-08-01 11:49 Приватный: Нет (DHT включён)
Статус: Проверен
Размер: 1.75 ГБ (1 877 603 466 байт)
Изменил:
---
Скачали: 0 (Раздающих: 0%)
Причина:
---
Здоровье: 0%
Сидеров: 0 Личеров: 0
Скорость раздачи: 0 байт/сек Скорость скачивания: 0 байт/сек
Последний сидер: Нет Последний личер: Нет
Для скачивания торрента необходимо зарегистрироваться или войти на трекер.
Показать сообщения за:  Поле сортировки  
Начать новую тему Ответить на тему  [ 1 сообщение ] 

Часовой пояс: UTC + 3 часа


Кто сейчас на конференции

Сейчас этот форум просматривают: нет зарегистрированных пользователей и гости: 0


Вы не можете начинать темы
Вы не можете отвечать на сообщения
Вы не можете редактировать свои сообщения
Вы не можете удалять свои сообщения
Вы не можете добавлять вложения

Найти:
Перейти:  
Переместиться наверх
 Главная |  Список форумов |   Time : 0.099s | 17 Queries | GZIP : Off |