Часовой пояс: UTC + 3 часа




Начать новую тему Ответить на тему  [ 1 сообщение ] 
Автор Сообщение
СообщениеДобавлено: 2020-08-01 11:50 
Не в сети
Администратор
Администратор
Аватара пользователя
Раздал: 1.24 ТБ
Скачал: 2.7 ГБ
Ратио: 470.569


Зарегистрирован: 2014-03-16 00:45
Сообщения: 2995
#777
Информация о фильме
Название: Вне досягаемости
Оригинальное название: Out of Reach
Год выхода: 2004
Жанр: Боевик, триллер, криминал, драма
Режиссер: По-Чин Леонг
В ролях: Стивен Сигал, Ида Новаковска, Агнешка Вагнер, Мэтт Шульце, Кжиштоф Печиньски, Робби Ги, Мурат Йилмаз, Ник Бримбл, Шоун Лоуренс, Ян Плазальски, Ханна Дуновска, Фрэнк Хильдебрандт, Мария Май, Катажина Роска, Яцек Самойлович

О фильме:
Билли Рэй Лэсинг — бывший американский спецназовец с богатым послужным списком. Устав от грязи и кровопролития, он решает посвятить остаток жизни благородному делу — спасению и воспитанию детей, оставшихся без родителей. Однажды он узнает, что одна из его подопечных таинственным образом исчезла из сиротского дома в Польше. Чтобы отыскать девочку, Лэсинг отправляется в Европу. Оказавшись на месте, Билли Рэй проводит собственное расследование и с ужасом выясняет, что последние годы он не только не помогал обездоленным детям, а успешно способствовал торговле ими… Он выходит на след международной банды отъявленных головорезов, не гнушающихся самыми грязными способами заработка. Но Лэсинг готов к схватке и одержим жаждой мести!


Страна: Польша, Великобритания
Студия: Epsilon Motion Pictures, Franchise Pictures
Продолжительность: 01:25:36
Перевод: Профессиональный многоголосый, Aвторский

Файл
Кодек: AVC
Качество: WEB-DL 1080p | AMZN
Видео: MPEG-4 AVC, 10.0 Mбит/с, 1920x1080, 23.976 кадр/с
Аудио #1: Русский (АС3, 6 ch, 448 Кбит/с, 48.0 KHz) Профессиональный (многоголосый, закадровый) R5
Аудио #2: Русский (АС3, 2 ch, 192 Кбит/с, 48.0 KHz) Профессиональный (многоголосый, закадровый) Союз Видео
Аудио #3: Русский (АС3, 2 ch, 192 Кбит/с, 48.0 KHz) Профессиональный (многоголосый, закадровый) РенТВ
Аудио #4: Русский (АС3, 2 ch, 192 Кбит/с, 48.0 KHz) Aвторский (одноголосый, закадровый) Визгунов Сергей
Аудио #5: Английский (АС3, 6 ch, 448 Кбит/с, 48.0 KHz)
Субтитры: английские
Трейлер
Источник: Out.of.Reach.2004.1080p.AMZN.WEB-DL.x264-alfaHD
General
Unique ID : 193178899248443650940127173319360994657 (0x9154E7154AA73C9988E27360CDDB5D61)
Complete name : Out.of.Reach.2004.AMZN.WEB-DL.1080p.mkv
Format : Matroska
Format version : Version 4
File size : 6.75 GiB
Duration : 1 h 25 min
Overall bit rate : 11.3 Mb/s
Encoded date : UTC 2020-07-27 14:31:11
Writing application : mkvmerge v7.1.0 ('Good Love') 64bit built on Jul 27 2014 13:06:55
Writing library : libebml v1.3.0 + libmatroska v1.4.1

Video
ID : 1
Format : AVC
Format/Info : Advanced Video Codec
Format profile : High@L4
Format settings : CABAC / 4 Ref Frames
Format settings, CABAC : Yes
Format settings, Reference fra : 4 frames
Codec ID : V_MPEG4/ISO/AVC
Duration : 1 h 25 min
Bit rate mode : Constant
Bit rate : 10 000 kb/s
Width : 1 920 pixels
Height : 1 080 pixels
Display aspect ratio : 16:9
Frame rate mode : Constant
Frame rate : 23.976 (24000/1001) FPS
Color space : YUV
Chroma subsampling : 4:2:0
Bit depth : 8 bits
Scan type : Progressive
Bits/(Pixel*Frame) : 0.201
Stream size : 5.86 GiB (87%)
Language : English
Default : Yes
Forced : No
Color range : Limited
Color primaries : BT.709
Transfer characteristics : BT.709
Matrix coefficients : BT.709

Audio #1
ID : 2
Format : AC-3
Format/Info : Audio Coding 3
Commercial name : Dolby Digital
Codec ID : A_AC3
Duration : 1 h 25 min
Bit rate mode : Constant
Bit rate : 448 kb/s
Channel(s) : 6 channels
Channel layout : L R C LFE Ls Rs
Sampling rate : 48.0 kHz
Frame rate : 31.250 FPS (1536 SPF)
Compression mode : Lossy
Stream size : 274 MiB (4%)
Title : MVO
Language : Russian
Service kind : Complete Main
Default : Yes
Forced : No

Audio #2
ID : 3
Format : AC-3
Format/Info : Audio Coding 3
Commercial name : Dolby Digital
Codec ID : A_AC3
Duration : 1 h 25 min
Bit rate mode : Constant
Bit rate : 192 kb/s
Channel(s) : 2 channels
Channel layout : L R
Sampling rate : 48.0 kHz
Frame rate : 31.250 FPS (1536 SPF)
Compression mode : Lossy
Stream size : 118 MiB (2%)
Title : DVO студия Инис по заказу «Союз-Видео»
Language : Russian
Service kind : Complete Main
Default : No
Forced : No

Audio #3
ID : 4
Format : AC-3
Format/Info : Audio Coding 3
Commercial name : Dolby Digital
Codec ID : A_AC3
Duration : 1 h 25 min
Bit rate mode : Constant
Bit rate : 192 kb/s
Channel(s) : 2 channels
Channel layout : L R
Sampling rate : 48.0 kHz
Frame rate : 31.250 FPS (1536 SPF)
Compression mode : Lossy
Stream size : 118 MiB (2%)
Title : DVO Ren TV
Language : Russian
Service kind : Complete Main
Default : No
Forced : No

Audio #4
ID : 5
Format : AC-3
Format/Info : Audio Coding 3
Commercial name : Dolby Digital
Codec ID : A_AC3
Duration : 1 h 25 min
Bit rate mode : Constant
Bit rate : 192 kb/s
Channel(s) : 2 channels
Channel layout : L R
Sampling rate : 48.0 kHz
Frame rate : 31.250 FPS (1536 SPF)
Compression mode : Lossy
Stream size : 118 MiB (2%)
Title : AVO Визгунов Сергей
Language : Russian
Service kind : Complete Main
Default : No
Forced : No

Audio #5
ID : 6
Format : AC-3
Format/Info : Audio Coding 3
Commercial name : Dolby Digital
Codec ID : A_AC3
Duration : 1 h 25 min
Bit rate mode : Constant
Bit rate : 448 kb/s
Channel(s) : 6 channels
Channel layout : L R C LFE Ls Rs
Sampling rate : 48.0 kHz
Frame rate : 31.250 FPS (1536 SPF)
Compression mode : Lossy
Stream size : 274 MiB (4%)
Title : DVD
Language : English
Service kind : Complete Main
Default : No
Forced : No

Text
ID : 7
Format : UTF-8
Codec ID : S_TEXT/UTF8
Codec ID/Info : UTF-8 Plain Text
Duration : 1 h 22 min
Bit rate : 44 b/s
Count of elements : 1025
Stream size : 27.2 KiB (0%)
Title : SDH
Language : English
Default : No
Forced : No


У вас нет необходимых прав для просмотра вложений в этом сообщении.


Вернуться к началу
 Профиль  
Ответить с цитатой  
  • Торрент
Автор: Consultants Хэш: ---
Добавлен: 2020-08-01 11:50 Приватный: Нет (DHT включён)
Статус: Проверен
Размер: 6.75 ГБ (7 243 599 027 байт)
Изменил:
---
Скачали: 0 (Раздающих: 0%)
Причина:
---
Здоровье: 0%
Сидеров: 0 Личеров: 0
Скорость раздачи: 0 байт/сек Скорость скачивания: 0 байт/сек
Последний сидер: Нет Последний личер: Нет
Для скачивания торрента необходимо зарегистрироваться или войти на трекер.
Показать сообщения за:  Поле сортировки  
Начать новую тему Ответить на тему  [ 1 сообщение ] 

Часовой пояс: UTC + 3 часа


Кто сейчас на конференции

Сейчас этот форум просматривают: нет зарегистрированных пользователей и гости: 1


Вы не можете начинать темы
Вы не можете отвечать на сообщения
Вы не можете редактировать свои сообщения
Вы не можете удалять свои сообщения
Вы не можете добавлять вложения

Найти:
Перейти:  
Переместиться наверх
 Главная |  Список форумов |   Time : 0.083s | 17 Queries | GZIP : Off |