Часовой пояс: UTC + 3 часа




Начать новую тему Ответить на тему  [ 1 сообщение ] 
Автор Сообщение
СообщениеДобавлено: 2020-11-25 05:05 
Не в сети
Аватара пользователя
Раздал: 0 байт
Скачал: 0 байт
Ратио: Inf.


Зарегистрирован: 2012-12-16 02:02
Сообщения: 116
Джиу-джитсу: Битва за Землю / Jiu Jitsu


#777

Информация о фильме
Название: Джиу-джитсу: Битва за Землю
Оригинальное название: Jiu Jitsu
Год выхода: 2020
Выпущено: США
Студия: Acme Rocket Fuel, Green Olive Films
Продолжительность: 01:42:21
Озвучивание: Дублированный | iTunes
Жанр: боевик, фантастика

Режиссер: Димитри Логотетис

В ролях: Николас Кейдж, Мари Авгеропулос, Фрэнк Грилло, Тони Джа, Рик Юн, Жужу Чан, Ален Мусси, Эдди Стиплз, Маррезе Крамп, Том Уокер

О фильме:
Каждые шесть лет древний орден мастеров джиу-джитсу сражается за Землю с расой безжалостных пришельцев из космоса. Так было тысячи лет, пока ветеран Джейк Барнс не потерпел поражение, и безопасность человечества оказалась под угрозой. Побитого и потерявшего сознание Джейка находят Уайли, Кюн и Харриган. Вместе они должны помочь Джейку набраться сил и остановить пришельца Бракса.



Файл
Формат: MKV
Качество: WEB-DL 1080p | AMAZON
Видео: x264, 8864 Kb/s, 23.976 fps, 1920x1080 (16:9), 0.178 bit/pixel
Аудио 1: 48 kHz, AC3 Dolby Digital, 3/2 (L, C, R, l, r) + LFE ch, ~384 kbps | русский
Аудио 2: 48 kHz, E-AC3 Dolby Digital, 3/2 (L, C, R, l, r) + LFE ch, ~640 kbps | английский
Субтитры: Russian (Full), English (SDH)
Дополнительно: Нет

Format: Matroska
Format version: Version 4
File size: 7.07 GiB
Duration: 1 h 42 min
Overall bit rate: 9 890 kb/s
Encoded date: UTC 2020-11-23 21:30:06
Writing application: mkvmerge v51.0.0 ('I Wish') 64-bit
Writing library: libebml v1.4.0 + libmatroska v1.6.2

Video
ID: 1
Format: AVC
Format/Info: Advanced Video Codec
Format profile: High@L4
Format settings: CABAC / 4 Ref Frames
Format settings, CABAC: Yes
Format settings, Reference: 4 frames
Codec ID: V_MPEG4/ISO/AVC
Duration: 1 h 42 min
Bit rate mode: Constant
Bit rate: 8 864 kb/s
Nominal bit rate: 10 000 kb/s
Width: 1 920 pixels
Height: 1 080 pixels
Display aspect ratio: 16:9
Frame rate mode: Constant
Frame rate: 23.976 (24000/1001) FPS
Color space: YUV
Chroma subsampling: 4:2:0
Bit depth: 8 bits
Scan type: Progressive
Bits/(Pixel*Frame): 0.178
Stream size: 6.34 GiB (90%)
Title: Jiu Jitsu (2020) ELEKTRI4KA
Language: English
Default: Yes
Forced: No
Color range: Limited
Color primaries: BT.709
Transfer characteristics: BT.709
Matrix coefficients: BT.709

Audio #1
ID: 2
Format: AC-3
Format/Info: Audio Coding 3
Commercial name: Dolby Digital
Codec ID: A_AC3
Duration: 1 h 42 min
Bit rate mode: Constant
Bit rate: 384 kb/s
Channel(s): 6 channels
Channel layout: L R C LFE Ls Rs
Sampling rate: 48.0 kHz
Frame rate: 31.250 FPS (1536 SPF)
Compression mode: Lossy
Stream size: 281 MiB (4%)
Title: iTunes DUB - ELEKTRI4KA
Language: Russian
Service kind: Complete Main
Default: Yes
Forced: No

Audio #2
ID: 3
Format: E-AC-3
Format/Info: Enhanced AC-3
Commercial name: Dolby Digital Plus
Codec ID: A_EAC3
Duration: 1 h 42 min
Bit rate mode: Constant
Bit rate: 640 kb/s
Channel(s): 6 channels
Channel layout: L R C LFE Ls Rs
Sampling rate: 48.0 kHz
Frame rate: 31.250 FPS (1536 SPF)
Compression mode: Lossy
Stream size: 469 MiB (6%)
Title: Original
Language: English
Service kind: Complete Main
Default: No
Forced: No

Text #1
ID: 4
Format: UTF-8
Codec ID: S_TEXT/UTF8
Codec ID/Info: UTF-8 Plain Text
Duration: 1 h 36 min
Bit rate: 39 b/s
Count of elements: 609
Stream size: 27.7 KiB (0%)
Title: Full
Language: Russian
Default: No
Forced: No

Text #2
ID: 5
Format: UTF-8
Codec ID: S_TEXT/UTF8
Codec ID/Info: UTF-8 Plain Text
Duration: 1 h 36 min
Bit rate: 29 b/s
Count of elements: 969
Stream size: 21.2 KiB (0%)
Title: SDH
Language: English
Default: No
Forced: No




Релиз группы


У вас нет необходимых прав для просмотра вложений в этом сообщении.


Вернуться к началу
 Профиль  
Ответить с цитатой  
  • Торрент
Автор: Sovetnik Хэш: ---
Добавлен: 2020-11-25 05:05 Приватный: Нет (DHT включён)
Статус: Проверен
Размер: 7.07 ГБ (7 592 429 673 байт)
Изменил:
---
Скачали: 2341 (Раздающих: 0%)
Причина:
---
Здоровье: 100%
Сидеров: 245 Личеров: 9
Скорость раздачи: 0 байт/сек Скорость скачивания: 0 байт/сек
Последний сидер: 10 дней 7 часов 35 минут 13 секунд назад Последний личер: 10 дней 7 часов 35 минут 13 секунд назад
Для скачивания торрента необходимо зарегистрироваться или войти на трекер.
Показать сообщения за:  Поле сортировки  
Начать новую тему Ответить на тему  [ 1 сообщение ] 

Часовой пояс: UTC + 3 часа


Кто сейчас на конференции

Сейчас этот форум просматривают: нет зарегистрированных пользователей и гости: 8


Вы не можете начинать темы
Вы не можете отвечать на сообщения
Вы не можете редактировать свои сообщения
Вы не можете удалять свои сообщения
Вы не можете добавлять вложения

Найти:
Перейти:  
Переместиться наверх
 Главная |  Список форумов |   Time : 0.089s | 17 Queries | GZIP : Off |
tracker_cron