Часовой пояс: UTC + 3 часа




Начать новую тему Ответить на тему  [ 1 сообщение ] 
Автор Сообщение
СообщениеДобавлено: 2020-11-27 08:42 
Не в сети
Супермодератор
Супермодератор
Аватара пользователя
Раздал: 21.76 ГБ
Скачал: 0 байт
Ратио: Seed.


Зарегистрирован: 2018-11-16 11:27
Сообщения: 309
День курка / Boss Level


#777

Информация о фильме
Название: День курка
Оригинальное название: Boss Level
Год выхода: 2020
Страна: США
Продолжительность: 01:40:37
Перевод: Любительский (многоголосый закадровый)
Жанр: фантастика, боевик

Режиссер: Джо Карнахан

В ролях:
Фрэнк Грилло, Мэл Гибсон, Наоми Уоттс, Рио Грилло, Кен Жонг, Шон МакКинни, Аннабелль Уоллис, Мишель Йео, Уилл Сассо, Селина Ло

О фильме:
Каждый день бывший спецназовец Рой Палвер начинает, отбиваясь от всевозможных убийц: здоровяка с мачете, пулемётчика на вертолёте, двух красоток на быстром авто, виртуозно владеющей мечом китаянки, карлика-подрывника и прочих психопатов. И каждый раз Рой неизменно погибает и снова оказывается в том же дне. Однажды он узнаёт, что его бывшая девушка, которая занималась секретными разработками, мертва. Рой решает докопаться до причин её смерти, а заодно выяснить, как ему самому выбраться из этой невыносимой временной петли.



Рекламы нет | Сэмпл

Файл
Кодек: x.264
Качество: WEB-DL 1080p
Видео: AVC, 1916x800 (2.40:1), 24.000 fps, 4 538 kb/s
Аудио 1: AC3, 48.0 kHz, 2 ch, 192 kb/s | RUS
Аудио 2: AC3, 48.0 kHz, 6 ch, 384 kb/s | ENG
Субтитры: Английские

General
Unique ID : 186299572258785259458176687827454373154 (0x8C27FE136DFD085692D384FFCD55AD22)
Complete name : Boss.Level.2020.1080p.WEB-DL.mkv
Format : Matroska
Format version : Version 4
File size : 3.60 GiB
Duration : 1 h 40 min
Overall bit rate : 5 116 kb/s
Encoded date : UTC 2020-11-26 18:23:23
Writing application : mkvmerge v8.3.0 ('Over the Horizon') 64bit
Writing library : libebml v1.3.1 + libmatroska v1.4.2

Video
ID : 1
Format : AVC
Format/Info : Advanced Video Codec
Format profile : High@L4
Format settings : CABAC / 5 Ref Frames
Format settings, CABAC : Yes
Format settings, ReFrames : 5 frames
Codec ID : V_MPEG4/ISO/AVC
Duration : 1 h 40 min
Bit rate : 4 538 kb/s
Width : 1 916 pixels
Height : 800 pixels
Display aspect ratio : 2.40:1
Frame rate mode : Constant
Frame rate : 24.000 FPS
Color space : YUV
Chroma subsampling : 4:2:0
Bit depth : 8 bits
Scan type : Progressive
Bits/(Pixel*Frame) : 0.123
Stream size : 3.19 GiB (89%)
Language : English
Default : Yes
Forced : No
Color range : Limited
Color primaries : BT.709
Transfer characteristics : BT.709
Matrix coefficients : BT.709

Audio #1
ID : 2
Format : AC-3
Format/Info : Audio Coding 3
Commercial name : Dolby Digital
Codec ID : A_AC3
Duration : 1 h 40 min
Bit rate mode : Constant
Bit rate : 192 kb/s
Channel(s) : 2 channels
Channel layout : L R
Sampling rate : 48.0 kHz
Frame rate : 31.250 FPS (1536 SPF)
Bit depth : 16 bits
Compression mode : Lossy
Stream size : 138 MiB (4%)
Language : Russian
Service kind : Complete Main
Default : Yes
Forced : No

Audio #2
ID : 3
Format : AC-3
Format/Info : Audio Coding 3
Commercial name : Dolby Digital
Codec ID : A_AC3
Duration : 1 h 40 min
Bit rate mode : Constant
Bit rate : 384 kb/s
Channel(s) : 6 channels
Channel layout : L R C LFE Ls Rs
Sampling rate : 48.0 kHz
Frame rate : 31.250 FPS (1536 SPF)
Bit depth : 16 bits
Compression mode : Lossy
Stream size : 276 MiB (8%)
Language : English
Service kind : Complete Main
Default : No
Forced : No

Text
ID : 4
Format : UTF-8
Codec ID : S_TEXT/UTF8
Codec ID/Info : UTF-8 Plain Text
Duration : 1 h 31 min
Bit rate : 59 b/s
Count of elements : 1133
Stream size : 39.7 KiB (0%)
Language : English
Default : No
Forced : No


У вас нет необходимых прав для просмотра вложений в этом сообщении.


Вернуться к началу
 Профиль  
Ответить с цитатой  
  • Торрент
Автор: Klingon Хэш: ---
Добавлен: 2020-11-27 08:42 Приватный: Нет (DHT включён)
Статус: Проверен
Размер: 3.6 ГБ (3 861 208 599 байт)
Изменил:
---
Скачали: 0 (Раздающих: 0%)
Причина:
---
Здоровье: 0%
Сидеров: 0 Личеров: 0
Скорость раздачи: 0 байт/сек Скорость скачивания: 0 байт/сек
Последний сидер: Нет Последний личер: Нет
Для скачивания торрента необходимо зарегистрироваться или войти на трекер.
Показать сообщения за:  Поле сортировки  
Начать новую тему Ответить на тему  [ 1 сообщение ] 

Часовой пояс: UTC + 3 часа


Кто сейчас на конференции

Сейчас этот форум просматривают: нет зарегистрированных пользователей и гости: 8


Вы не можете начинать темы
Вы не можете отвечать на сообщения
Вы не можете редактировать свои сообщения
Вы не можете удалять свои сообщения
Вы не можете добавлять вложения

Найти:
Перейти:  
Переместиться наверх
 Главная |  Список форумов |   Time : 0.095s | 19 Queries | GZIP : Off |
tracker_cron