Часовой пояс: UTC + 3 часа




Начать новую тему Ответить на тему  [ 1 сообщение ] 
Автор Сообщение
СообщениеДобавлено: 2020-12-03 11:04 
Не в сети
Администратор
Администратор
Аватара пользователя
Раздал: 1.44 ТБ
Скачал: 9.17 ГБ
Ратио: 160.627


Зарегистрирован: 2014-03-16 00:45
Сообщения: 3301
#777

Информация о фильме
Название: Телохранитель бабушки
Оригинальное название: Lucky Grandma
Год выхода: 2019
Страна: США
Студия: Parris Pictures, Treehead Films
Продолжительность: 01:27:38
Перевод: Профессиональный многоголосый | iTunes
Жанр: Драма, комедия, криминал

Режиссер: Сеси Сили

В ролях: Цай Чинь, Ха Сяоюань, Майкл Тоу, Вуди Фу, Янь Си, Вай Чин Хо, Клем Чун, Эдди Юй, Мэйсон Ям, Лиман Чен

О фильме:
Где-то в Нью-Йорке гадалка предсказала бабушке большую удачу. Никогда не поздно начать жить в свое удовольствие. Бабушка сняла все деньги со счета и отправилась в казино. Сорвать огромный куш в казино? Да легко! Нанять телохранителя? Не проблема! Черпая вдохновение из остросюжетных телесериалов, бабушка оказывается в эпицентре настоящих бандитских разборок. Теперь несладко будет всем!



Качество: BDRip 720p
Видео: MPEG-4 AVC, 1280x690, 5999 Kbit/s, 23.976 fps
Аудио #01: 48 kHz, AC3, 5.1, 384 Kbps | iTunes | RUS |
Аудио #02: 48 kHz, AC3, 5.1, 640 Kbps | Оригинал | CHI |
Субтитры: Английские



General
Unique ID : 336316699335673874236096099952312943839 (0xFD043D7E0FE726A66EBC6DEAB7FB84DF)
Complete name : D:Video111Lucky.Grandma.2019.BDRip.720p.seleZen.mkv
Format : Matroska
Format version : Version 4
File size : 4.30 GiB
Duration : 1 h 27 min
Overall bit rate : 7 021 kb/s
Movie name : Lucky Grandma 2019 from seleZen
Encoded date : UTC 2020-11-20 10:13:03
Writing application : mkvmerge v40.0.0 ('Old Town Road + Pony') 64-bit
Writing library : libebml v1.3.9 + libmatroska v1.5.2

Video
ID : 1
Format : AVC
Format/Info : Advanced Video Codec
Format profile : High@L4.1
Format settings : CABAC / 9 Ref Frames
Format settings, CABAC : Yes
Format settings, Reference : 9 frames
Codec ID : V_MPEG4/ISO/AVC
Duration : 1 h 27 min
Bit rate : 5 999 kb/s
Width : 1 280 pixels
Height : 690 pixels
Display aspect ratio : 1.85:1
Frame rate mode : Constant
Frame rate : 23.976 (24000/1001) FPS
Color space : YUV
Chroma subsampling : 4:2:0
Bit depth : 8 bits
Scan type : Progressive
Bits/(Pixel*Frame) : 0.283
Stream size : 3.67 GiB (85%)
Title : BdC
Writing library : x264 core 160 r3000 33f9e14
Encoding settings : cabac=1 / ref=9 / deblock=1:-3:-3 / analyse=0x3:0x133 / me=umh / subme=11 / psy=1 / psy_rd=1.05:0.00 / mixed_ref=1 / me_range=32 / chroma_me=1 / trellis=2 / 8x8dct=1 / cqm=0 / deadzone=21,11 / fast_pskip=0 / chroma_qp_offset=-2 / threads=12 / lookahead_threads=2 / sliced_threads=0 / nr=0 / decimate=0 / interlaced=0 / bluray_compat=0 / constrained_intra=0 / bframes=9 / b_pyramid=2 / b_adapt=2 / b_bias=0 / direct=3 / weightb=1 / open_gop=0 / weightp=2 / keyint=240 / keyint_min=23 / scenecut=40 / intra_refresh=0 / rc_lookahead=60 / rc=2pass / mbtree=0 / bitrate=5999 / ratetol=1.0 / qcomp=0.65 / qpmin=0 / qpmax=69 / qpstep=4 / cplxblur=20.0 / qblur=0.5 / vbv_maxrate=50000 / vbv_bufsize=62500 / nal_hrd=none / filler=0 / ip_ratio=1.40 / pb_ratio=1.30 / aq=3:0.80
Language : Chinese
Default : Yes
Forced : No
Color range : Limited
Color primaries : BT.709
Transfer characteristics : BT.709
Matrix coefficients : BT.709

Audio #1
ID : 2
Format : AC-3
Format/Info : Audio Coding 3
Commercial name : Dolby Digital
Codec ID : A_AC3
Duration : 1 h 27 min
Bit rate mode : Constant
Bit rate : 384 kb/s
Channel(s) : 6 channels
Channel layout : L R C LFE Ls Rs
Sampling rate : 48.0 kHz
Frame rate : 31.250 FPS (1536 SPF)
Compression mode : Lossy
Stream size : 241 MiB (5%)
Title : iTunes
Language : Russian
Service kind : Complete Main
Default : Yes
Forced : Yes

Audio #2
ID : 3
Format : AC-3
Format/Info : Audio Coding 3
Commercial name : Dolby Digital
Codec ID : A_AC3
Duration : 1 h 27 min
Bit rate mode : Constant
Bit rate : 640 kb/s
Channel(s) : 6 channels
Channel layout : L R C LFE Ls Rs
Sampling rate : 48.0 kHz
Frame rate : 31.250 FPS (1536 SPF)
Compression mode : Lossy
Stream size : 401 MiB (9%)
Title : Original
Language : Chinese
Service kind : Complete Main
Default : No
Forced : No

Text
ID : 4
Format : UTF-8
Codec ID : S_TEXT/UTF8
Codec ID/Info : UTF-8 Plain Text
Duration : 1 h 19 min
Bit rate : 27 b/s
Count of elements : 670
Stream size : 16.1 KiB (0%)
Title : Full
Language : English
Default : No
Forced : No

Menu
00:00:00.000 : en:00:00:00.000
00:02:57.427 : en:00:02:57.427
00:14:36.375 : en:00:14:36.375
00:25:17.391 : en:00:25:17.391
00:38:29.224 : en:00:38:29.224
00:49:28.799 : en:00:49:28.799
00:59:11.381 : en:00:59:11.381
01:08:38.823 : en:01:08:38.823
01:15:52.798 : en:01:15:52.798
01:21:49.530 : en:01:21:49.530


Релиз:



У вас нет необходимых прав для просмотра вложений в этом сообщении.


Вернуться к началу
 Профиль  
Ответить с цитатой  
  • Торрент
Автор: Consultants Хэш: ---
Добавлен: 2020-12-03 11:04 Приватный: Нет (DHT включён)
Статус: Проверен
Размер: 4.3 ГБ (4 615 513 339 байт)
Изменил:
---
Скачали: 2125 (Раздающих: 0%)
Причина:
---
Здоровье: 100%
Сидеров: 101 Личеров: 3
Скорость раздачи: 0 байт/сек Скорость скачивания: 0 байт/сек
Последний сидер: 10 дней 7 часов 12 минут 44 секунды назад Последний личер: 10 дней 7 часов 12 минут 44 секунды назад
Для скачивания торрента необходимо зарегистрироваться или войти на трекер.
Показать сообщения за:  Поле сортировки  
Начать новую тему Ответить на тему  [ 1 сообщение ] 

Часовой пояс: UTC + 3 часа


Кто сейчас на конференции

Сейчас этот форум просматривают: нет зарегистрированных пользователей и гости: 9


Вы не можете начинать темы
Вы не можете отвечать на сообщения
Вы не можете редактировать свои сообщения
Вы не можете удалять свои сообщения
Вы не можете добавлять вложения

Найти:
Перейти:  
Переместиться наверх
 Главная |  Список форумов |   Time : 0.088s | 19 Queries | GZIP : Off |
tracker_cron