Часовой пояс: UTC + 3 часа




Начать новую тему Ответить на тему  [ 1 сообщение ] 
Автор Сообщение
СообщениеДобавлено: 2021-03-27 00:21 
Не в сети
Администратор
Администратор
Аватара пользователя
Раздал: 1.44 ТБ
Скачал: 9.17 ГБ
Ратио: 160.627


Зарегистрирован: 2014-03-16 00:45
Сообщения: 3301
Грань времени / Synchronic


#777

Информация о фильме
Название: Грань времени
Оригинальное название: Synchronic
Год выхода: 2019
Выпущено: США / Patriot Pictures, Pfaff & Pfaff Productions, Love & Death Productions
Продолжительность: 01:42:06
Озвучивание: Дублированное | iTunes
Жанр: Ужасы, фантастика, драма

Режиссер: Джастин Бенсон, Аарон Мурхед

В ролях: Джейми Дорнан, Энтони Маки, Кэтрин Аселтон, Элли Иоаннидес, Билл Оберст мл., Наташа Тина Лью, Аарон Гробен, Лоуренс Тернер, Девин А. Тайлер, Бетси Холт, Уолкер Бэбингтон, Мартин Бэтс Брэдфорд, Карл Палмер, Шэйн Брэйди, Майк Р. Моро, Рамиз Монсеф, Сэм Мэлоун, Кейт Эдейр, Хоун Чан, Дивайн Принц Ти Эммекка, Ронда Дентс, Софи Хауэлл, Роз Белара Янг, Майлз Хендлер, Адам Дж. Йинд, Жан-Пьер Вертус, Мэттью Андервуд, Майкл Уоррен, Расс Скайнс, Дж. Ламб, Леон Флейшер

О фильме:
Главные герои - два профессионала своего дела, которые работают в скорой помощи Нового Орлеана. Однажды они сталкиваются с серией кошмарных смертей. Виной тому выступает новый наркотик, имеющий странный побочный эффект.





Файл
Формат: MKV
Качество: BDRip 720p
Видео: MPEG-4 AVC, 9502 Кb/s, 1280x536
Аудио #1: Russian: 48 kHz, AC3 Dolby Digital, 3/2 (L, C, R, l, r) + LFE ch, ~384 Kbps | iTunes
Аудио #2: English: 48 kHz, AC3 Dolby Digital, 3/2 (L, C, R, l, r) + LFE ch, ~640 Kbps | Original
Субтитры: Russian (Full), English (Full, Forced, SDH)
Дополнительно: Сохранены оригинальные чаптеры.

Complete name : Gran.vremeni.2019.720p.BluRay..ELEKTRI4KA.UNIONGANG.mkv
Format : Matroska
Format version : Version 4
File size : 7.51 GiB
Duration : 1 h 42 min
Overall bit rate : 10.5 Mb/s
Movie name : Gran.vremeni.2019.720p.BluRay..ELEKTRI4KA.UNIONGANG
Encoded date : UTC 2021-03-25 22:13:38
Writing application : mkvmerge v8.3.0 ('Over the Horizon') 64bit
Writing library : libebml v1.3.1 + libmatroska v1.4.2

Video
ID : 1
Format : AVC
Format/Info : Advanced Video Codec
Format profile : High@L4.1
Format settings : CABAC / 12 Ref Frames
Format settings, CABAC : Yes
Format settings, Reference frames : 12 frames
Codec ID : V_MPEG4/ISO/AVC
Duration : 1 h 42 min
Bit rate : 9 502 kb/s
Width : 1 280 pixels
Height : 536 pixels
Display aspect ratio : 2.40:1
Frame rate mode : Constant
Frame rate : 23.976 (24000/1001) FPS
Color space : YUV
Chroma subsampling : 4:2:0
Bit depth : 8 bits
Scan type : Progressive
Bits/(Pixel*Frame) : 0.578
Stream size : 6.78 GiB (90%)
Writing library : x264 core 161 r3048+58M ~ Encoded by Mocunaman in Portugal
Encoding settings : cabac=1 / ref=12 / deblock=1:-3:-3 / analyse=0x3:0x113 / me=umh / subme=11 / psy=1 / fade_compensate=0.00 / psy_rd=1.05:0.00 / mixed_ref=1 / me_range=32 / chroma_me=1 / trellis=2 / 8x8dct=1 / cqm=0 / deadzone=21, 11 / fast_pskip=0 / chroma_qp_offset=-2 / threads=17 / lookahead_threads=4 / sliced_threads=0 / nr=0 / decimate=0 / interlaced=0 / bluray_compat=0 / constrained_intra=0 / fgo=0 / bframes=16 / b_pyramid=2 / b_adapt=2 / b_bias=0 / direct=3 / weightb=1 / open_gop=0 / weightp=2 / keyint=250 / keyint_min=23 / scenecut=40 / intra_refresh=0 / rc_lookahead=60 / rc=crf / mbtree=0 / crf=16.9000 / qcomp=0.60 / qpmin=0:0:0 / qpmax=69:69:69 / qpstep=4 / vbv_maxrate=62500 / vbv_bufsize=78125 / crf_max=0.0 / nal_hrd=none / filler=0 / ip_ratio=1.30 / pb_ratio=1.20 / aq=3:0.80 / aq-sensitivity=10.00 / aq-factor=1.00:1.00:1.00 / aq2=0 / aq3=0
Language : English
Default : Yes
Forced : No
Color range : Limited
Color primaries : BT.709
Transfer characteristics : BT.709
Matrix coefficients : BT.709

Audio #1
ID : 2
Format : AC-3
Format/Info : Audio Coding 3
Commercial name : Dolby Digital
Codec ID : A_AC3
Duration : 1 h 42 min
Bit rate mode : Constant
Bit rate : 384 kb/s
Channel(s) : 6 channels
Channel layout : L R C LFE Ls Rs
Sampling rate : 48.0 kHz
Frame rate : 31.250 FPS (1536 SPF)
Compression mode : Lossy
Stream size : 280 MiB (4%)
Title : DUB (iTunes)
Language : Russian
Service kind : Complete Main
Default : Yes
Forced : Yes

Audio #2
ID : 3
Format : AC-3
Format/Info : Audio Coding 3
Commercial name : Dolby Digital
Codec ID : A_AC3
Duration : 1 h 42 min
Bit rate mode : Constant
Bit rate : 640 kb/s
Channel(s) : 6 channels
Channel layout : L R C LFE Ls Rs
Sampling rate : 48.0 kHz
Frame rate : 31.250 FPS (1536 SPF)
Compression mode : Lossy
Stream size : 467 MiB (6%)
Title : Original
Language : English
Service kind : Complete Main
Default : No
Forced : No

Text #1
ID : 4
Format : UTF-8
Codec ID : S_TEXT/UTF8
Codec ID/Info : UTF-8 Plain Text
Duration : 1 h 31 min
Bit rate : 79 b/s
Count of elements : 989
Stream size : 53.2 KiB (0%)
Title : Full
Language : Russian
Default : Yes
Forced : Yes

Text #2
ID : 5
Format : UTF-8
Codec ID : S_TEXT/UTF8
Codec ID/Info : UTF-8 Plain Text
Duration : 22 min 57 s
Bit rate : 0 b/s
Count of elements : 7
Stream size : 101 Bytes (0%)
Title : Forced .srt
Language : English
Default : No
Forced : No

Text #3
ID : 6
Format : UTF-8
Codec ID : S_TEXT/UTF8
Codec ID/Info : UTF-8 Plain Text
Duration : 1 h 32 min
Bit rate : 46 b/s
Count of elements : 897
Stream size : 31.4 KiB (0%)
Title : Full .srt
Language : English
Default : No
Forced : No

Text #4
ID : 7
Format : UTF-8
Codec ID : S_TEXT/UTF8
Codec ID/Info : UTF-8 Plain Text
Duration : 1 h 36 min
Bit rate : 51 b/s
Count of elements : 1147
Stream size : 36.5 KiB (0%)
Title : SDH .srt
Language : English
Default : No
Forced : No

Menu
00:00:00.000 : en:Chapter 01
00:09:47.587 : en:Chapter 02
00:21:58.526 : en:Chapter 03
00:28:40.719 : en:Chapter 04
00:34:59.014 : en:Chapter 05
00:43:04.499 : en:Chapter 06
00:51:52.234 : en:Chapter 07
00:57:57.307 : en:Chapter 08
01:06:03.793 : en:Chapter 09
01:15:26.147 : en:Chapter 10
01:23:50.067 : en:Chapter 11
01:27:22.529 : en:Chapter 12

Релиз группы: &


У вас нет необходимых прав для просмотра вложений в этом сообщении.


Вернуться к началу
 Профиль  
Ответить с цитатой  
  • Торрент
Автор: Consultants Хэш: ---
Добавлен: 2021-03-27 00:21 Приватный: Нет (DHT включён)
Статус: Проверен
Размер: 7.51 ГБ (8 062 049 633 байт)
Изменил:
---
Скачали: 16486 (Раздающих: 0%)
Причина:
---
Здоровье: 100%
Сидеров: 385 Личеров: 30
Скорость раздачи: 0 байт/сек Скорость скачивания: 0 байт/сек
Последний сидер: 10 дней 7 часов 48 минут 17 секунд назад Последний личер: 10 дней 7 часов 48 минут 17 секунд назад
Для скачивания торрента необходимо зарегистрироваться или войти на трекер.
Показать сообщения за:  Поле сортировки  
Начать новую тему Ответить на тему  [ 1 сообщение ] 

Часовой пояс: UTC + 3 часа


Кто сейчас на конференции

Сейчас этот форум просматривают: нет зарегистрированных пользователей и гости: 3


Вы не можете начинать темы
Вы не можете отвечать на сообщения
Вы не можете редактировать свои сообщения
Вы не можете удалять свои сообщения
Вы не можете добавлять вложения

Найти:
Перейти:  
Переместиться наверх
 Главная |  Список форумов |   Time : 0.100s | 17 Queries | GZIP : Off |