Часовой пояс: UTC + 3 часа




Начать новую тему Ответить на тему  [ 1 сообщение ] 
Автор Сообщение
СообщениеДобавлено: 2021-05-02 23:52 
Не в сети
Аватара пользователя
Раздал: 0 байт
Скачал: 0 байт
Ратио: Inf.


Зарегистрирован: 2012-12-16 02:02
Сообщения: 116
Царство небесное

Kingdom of Heaven

«Be without fear in the face of your enemies. Safeguard the helpless, and do no wrong»



#777

Страна: США, Испания
Жанр: боевик, драма, приключения, военный, история
Год выпуска: 2005
Продолжительность: 03:09:33
Перевод: Профессиональный (полное дублирование), Профессиональный (многоголосый, закадровый), 3 x Авторский, Оригинальный.
Субтитры: русские (Sawyer), русские (Киномания), английские, английские (SDH).


Режиссер: Ридли Скотт / Ridley Scott


В ролях: Орландо Блум (Balian de Ibelin), Ева Грин (Sibylla), Мартон Чокаш (Guy de Lusignan), Дэвид Тьюлис (Hospitaler), Гасан Масуд (Saladin), Лиам Нисон (Godfrey de Ibelin), Джереми Айронс (Tiberias), Эдвард Нортон (King Baldwin), Брендан Глисон (Reynald de Chatillon), Александр Сиддиг (Imad), Майкл Шин (Priest), Велибор Топич (Almaric)
Дублёры: Александр Баргман (Balian de Ibelin), Анна Геллер (Sibylla), Вадим Гущин (Guy de Lusignan), Сергей Паршин (Hospitaler), Валерий Кухарешин (Saladin), Андрей Толубеев (Godfrey de Ibelin), Юрий Лазарев (Tiberias), Станислав Концевич (King Baldwin), Геннадий Богачёв (Reynald de Chatillon), Максим Сергеев (Priest; Mullah; Saracen Messenger), Валерий Соловьев (Almaric), Андрей Тенетко (Odo; Templar Master)


Описание: Юный оружейник Бэлиан вынужден бежать со своей родины. Он присоединяется к отряду крестоносцев, которым руководит его отец. Но, в одной из битв, отец получает тяжелую рану и перед смертью присваивает своему сыну сан рыцаря, и тот клянется в верности королю Иерусалима.



MPAA: R - Лицам до 17 лет обязательно присутствие взрослого


Семпл


Качество: BDRip
Контейнер: MKV

Видео: AVC, 1280x544 (2.35:1), 5107 kbps, 23,976 fps, 0,306 bpp
Аудио №1: русский / AC3 / 5.1 / 48 kHz / 448 kbps / Дубляж ( Вставки MVO на не переведённые места )
Аудио №2: русский / AC3 / 5.1 / 48 kHz / 448 kbps / MVO ( Киномания )
Аудио №3: русский / AC3 / 5.1 / 48 kHz / 448 kbps / AVO ( Гаврилов )
Аудио №4: русский / AC3 / 5.1 / 48 kHz / 448 kbps / AVO ( Королёв )
Аудио №5: русский / AC3 / 2.0 / 48 kHz / 192 kbps / AVO ( Живов )
Аудио №6: английский / AC3 / 5.1 / 48 kHz / 448 kbps
Навигация по главам: есть


******************************************************************************
x264 [info]: frame I:2192 Avg QP:13.82 size:108913
x264 [info]: frame P:58155 Avg QP:16.74 size: 48670
x264 [info]: frame B:212341 Avg QP:18.28 size: 19732
******************************************************************************
Format : Matroska
Format version : Version 2
File size : 9.99 GiB
Duration : 3h 9mn
Overall bit rate : 7 542 Kbps
Movie name : = Царство небесное / Kingdom of Heaven (2005) D.C. BDRip 720p SC Kosmos =
Encoded date : UTC 2016-05-28 13:13:39
Writing application : mkvmerge v5.8.0 ('No Sleep / Pillow') built on Sep 2 2012 15:37:04
Writing library : libebml v1.2.3 + libmatroska v1.3.0
Attachment : Yes

Video
ID : 1
Format : AVC
Format/Info : Advanced Video Codec
Format profile : High@L4.1
Format settings, CABAC : Yes
Format settings, ReFrames : 10 frames
Codec ID : V_MPEG4/ISO/AVC
Duration : 3h 9mn
Bit rate : 5 107 Kbps
Width : 1 280 pixels
Height : 544 pixels
Display aspect ratio : 2.35:1
Frame rate : 23.976 fps
Color space : YUV
Chroma subsampling : 4:2:0
Bit depth : 8 bits
Scan type : Progressive
Bits/(Pixel*Frame) : 0.306
Stream size : 6.57 GiB (66%)
Title : Царство небесное / Kingdom of Heaven (2005) D.C. BDRip 720p SC Kosmos
Writing library : x264 core 146 r2538 121396c
Encoding settings : cabac=1 / ref=10 / deblock=1:-1:-1 / analyse=0x3:0x113 / me=esa / subme=11 / psy=1 / psy_rd=1.00:0.00 / mixed_ref=1 / me_range=32 / chroma_me=1 / trellis=2 / 8x8dct=1 / cqm=0 / deadzone=21,11 / fast_pskip=0 / chroma_qp_offset=-2 / threads=12 / lookahead_threads=3 / sliced_threads=0 / nr=0 / decimate=0 / interlaced=0 / bluray_compat=0 / constrained_intra=0 / bframes=12 / b_pyramid=2 / b_adapt=2 / b_bias=0 / direct=3 / weightb=1 / open_gop=0 / weightp=2 / keyint=240 / keyint_min=23 / scenecut=40 / intra_refresh=0 / rc_lookahead=40 / rc=2pass / mbtree=0 / bitrate=5107 / ratetol=1.0 / qcomp=0.60 / qpmin=0 / qpmax=69 / qpstep=4 / cplxblur=20.0 / qblur=0.5 / vbv_maxrate=50000 / vbv_bufsize=62500 / nal_hrd=none / filler=0 / ip_ratio=1.40 / pb_ratio=1.30 / aq=1:1.00 / zones=260518,272687,b=0.25
Language : English
Default : Yes
Forced : No

Audio #1
ID : 2
Format : AC-3
Format/Info : Audio Coding 3
Mode extension : CM (complete main)
Codec ID : A_AC3
Duration : 3h 9mn
Bit rate mode : Constant
Bit rate : 448 Kbps
Channel(s) : 6 channels
Channel positions : Front: L C R, Side: L R, LFE
Sampling rate : 48.0 KHz
Bit depth : 16 bits
Compression mode : Lossy
Stream size : 607 MiB (6%)
Title : Дубляж ( Вставки MVO на не переведённые места )
Language : Russian
Default : Yes
Forced : No

Audio #2
ID : 3
Format : AC-3
Format/Info : Audio Coding 3
Mode extension : CM (complete main)
Codec ID : A_AC3
Duration : 3h 9mn
Bit rate mode : Constant
Bit rate : 448 Kbps
Channel(s) : 6 channels
Channel positions : Front: L C R, Side: L R, LFE
Sampling rate : 48.0 KHz
Bit depth : 16 bits
Compression mode : Lossy
Stream size : 607 MiB (6%)
Title : MVO ( Киномания )
Language : Russian
Default : No
Forced : No

Audio #3
ID : 4
Format : AC-3
Format/Info : Audio Coding 3
Mode extension : CM (complete main)
Codec ID : A_AC3
Duration : 3h 9mn
Bit rate mode : Constant
Bit rate : 448 Kbps
Channel(s) : 6 channels
Channel positions : Front: L C R, Side: L R, LFE
Sampling rate : 48.0 KHz
Bit depth : 16 bits
Compression mode : Lossy
Stream size : 607 MiB (6%)
Title : AVO ( Гаврилов )
Language : Russian
Default : No
Forced : No

Audio #4
ID : 5
Format : AC-3
Format/Info : Audio Coding 3
Mode extension : CM (complete main)
Codec ID : A_AC3
Duration : 3h 9mn
Bit rate mode : Constant
Bit rate : 448 Kbps
Channel(s) : 6 channels
Channel positions : Front: L C R, Side: L R, LFE
Sampling rate : 48.0 KHz
Bit depth : 16 bits
Compression mode : Lossy
Stream size : 607 MiB (6%)
Title : AVO ( Королёв )
Language : Russian
Default : No
Forced : No

Audio #5
ID : 6
Format : AC-3
Format/Info : Audio Coding 3
Mode extension : CM (complete main)
Codec ID : A_AC3
Duration : 3h 9mn
Bit rate mode : Constant
Bit rate : 192 Kbps
Channel(s) : 2 channels
Channel positions : Front: L R
Sampling rate : 48.0 KHz
Bit depth : 16 bits
Compression mode : Lossy
Stream size : 260 MiB (3%)
Title : AVO ( Живов )
Language : Russian
Default : No
Forced : No

Audio #6
ID : 7
Format : AC-3
Format/Info : Audio Coding 3
Mode extension : CM (complete main)
Codec ID : A_AC3
Duration : 3h 9mn
Bit rate mode : Constant
Bit rate : 448 Kbps
Channel(s) : 6 channels
Channel positions : Front: L C R, Side: L R, LFE
Sampling rate : 48.0 KHz
Bit depth : 16 bits
Compression mode : Lossy
Stream size : 607 MiB (6%)
Language : English
Default : No
Forced : No

Text #1
ID : 8
Format : UTF-8
Codec ID : S_TEXT/UTF8
Codec ID/Info : UTF-8 Plain Text
Title : Sawyer
Language : Russian
Default : No
Forced : No

Text #2
ID : 9
Format : UTF-8
Codec ID : S_TEXT/UTF8
Codec ID/Info : UTF-8 Plain Text
Title : Киномания
Language : Russian
Default : No
Forced : No

Text #3
ID : 10
Format : UTF-8
Codec ID : S_TEXT/UTF8
Codec ID/Info : UTF-8 Plain Text
Language : English
Default : No
Forced : No

Text #4
ID : 11
Format : UTF-8
Codec ID : S_TEXT/UTF8
Codec ID/Info : UTF-8 Plain Text
Title : SDH
Language : English
Default : No
Forced : No

Menu
00:00:00.000 : en:Crossroads
00:04:30.479 : en:Crusaders
00:07:23.276 : en:Without an Heir
00:09:22.353 : en:Sin
00:11:37.572 : en:Old Memories
00:14:37.835 : en:The Baron's Son
00:18:15.136 : en:In Hell
00:20:38.070 : en:To Erase My Sins
00:22:03.280 : en:The Guard of the Hawk
00:24:18.540 : en:Whoever Dies Here Today
00:30:44.509 : en:The Path to Heaven
00:32:36.621 : en:A Better World
00:34:52.507 : en:Remember That Name
00:36:34.150 : en:The Knight's Oath
00:39:15.520 : en:Perilous Journey
00:41:58.349 : en:The Saracen's Challenge
00:45:55.044 : en:Jerusalem
00:49:07.236 : en:The New Baron
00:51:36.885 : en:Sibylla
00:54:18.130 : en:The Marshall of Jerusalem
00:56:36.310 : en:His Father's Son
00:58:36.054 : en:At the King's Table
01:01:15.547 : en:The Leper King
01:05:47.318 : en:Ibelin
01:10:11.582 : en:Guests of the House
01:16:09.940 : en:There Is Only Light
01:18:43.177 : en:God Wills It
01:20:08.887 : en:Tokens
01:21:28.801 : en:Blasphemy
01:24:34.361 : en:Defenders of Kerak
01:29:34.202 : en:The Friendly Enemy
01:30:48.610 : en:Jerusalem Has Come
01:34:07.267 : en:The Kiss of Peace
01:37:13.244 : en:I Quake for Islam
01:39:36.929 : en:Power
01:42:48.704 : en:An Understanding
01:45:14.308 : en:Conscience or Nothing
01:50:21.698 : en:The Final Dream
01:54:51.802 : en:Long Live the King
01:56:28.356 : en:The Reckoning
01:58:05.787 : en:A Mother's Pain
02:02:01.272 : en:Templars' Attack
02:04:07.148 : en:Queen of Jerusalem
02:04:57.156 : en:Beloved Sister
02:07:43.030 : en:He Is Waiting
02:11:44.313 : en:The Road to Hattin
02:13:25.915 : en:A King's Example
02:16:15.834 : en:Four Days
02:18:08.655 : en:To Defend Jerusalem
02:21:55.757 : en:Rise a Knight
02:24:17.190 : en:Siege
02:28:54.134 : en:Retaliation
02:34:58.080 : en:The Third Day
02:37:20.848 : en:God Will Understand
02:39:19.008 : en:The Door Into Jerusalem
02:41:27.678 : en:Final Stand
02:45:06.814 : en:Nothing and Everything
02:50:52.576 : en:The Perfect Knight
02:53:08.253 : en:Leaving Jerusalem
02:56:02.552 : en:A Queen Never Walks
02:57:19.504 : en:I Am the Blacksmith
03:00:35.533 : en:Epilogue/End Titles








У вас нет необходимых прав для просмотра вложений в этом сообщении.


Вернуться к началу
 Профиль  
Ответить с цитатой  
  • Торрент
Автор: Sovetnik Хэш: ---
Добавлен: 2021-05-02 23:52 Приватный: Нет (DHT включён)
Статус: Проверен
Размер: 9.99 ГБ (10 721 681 357 байт)
Изменил:
---
Скачали: 4 (Раздающих: 0%)
Причина:
---
Здоровье: 100%
Сидеров: 6 Личеров: 2
Скорость раздачи: 0 байт/сек Скорость скачивания: 0 байт/сек
Последний сидер: 3 дня 1 час 24 минуты 24 секунды назад Последний личер: 3 дня 1 час 24 минуты 24 секунды назад
Для скачивания торрента необходимо зарегистрироваться или войти на трекер.
Показать сообщения за:  Поле сортировки  
Начать новую тему Ответить на тему  [ 1 сообщение ] 

Часовой пояс: UTC + 3 часа


Кто сейчас на конференции

Сейчас этот форум просматривают: нет зарегистрированных пользователей и гости: 5


Вы не можете начинать темы
Вы не можете отвечать на сообщения
Вы не можете редактировать свои сообщения
Вы не можете удалять свои сообщения
Вы не можете добавлять вложения

Найти:
Перейти:  
Переместиться наверх
 Главная |  Список форумов |   Time : 0.091s | 21 Queries | GZIP : Off |